<?xml version="1.0" standalone="no"?>
<!DOCTYPE svg PUBLIC "-//W3C//DTD SVG 1.1//EN" "http://www.w3.org/Graphics/SVG/1.1/DTD/svg11.dtd">
<svg xmlns="http://www.w3.org/2000/svg">
<metadata>Generated by Fontastic.me</metadata>
<defs>
<font id="exclusive-icon" horiz-adv-x="512">
<font-face font-family="exclusive-icon" units-per-em="512" ascent="480" descent="-32"/>
<missing-glyph horiz-adv-x="512" />

<glyph glyph-name="addthis" unicode="&#57997;" d="M504 334l-170 0 0 170c0 4-3 8-8 8l-140 0c-5 0-8-4-8-8l0-170-170 0c-4 0-8-3-8-8l0-140c0-5 4-8 8-8l170 0 0-170c0-4 3-8 8-8l140 0c5 0 8 4 8 8l0 170 170 0c4 0 8 3 8 8l0 140c0 5-4 8-8 8z"/>
<glyph glyph-name="amazon" unicode="&#57998;" d="M507 145c-8 10-32 11-42 11-8 0-22-1-36-5-9-3-17-7-24-12-7-5-10-12-8-19 2-6 8-10 15-10 0 0 1 0 2 0 0 0 0 0 1 0 2 0 4 0 6 1-51-19-106-29-160-29-82 0-166 22-235 62 0 0 0 0 0 0-3 2-6 3-9 3-8 0-14-4-16-11-2-7 0-14 6-19 67-61 156-95 249-95 63 0 132 18 183 49 6 3 12 7 18 11-2-5-5-11-7-18 0 0-1 0-1 0-2-6-1-11 2-16 3-4 7-6 12-6 5 0 9 1 12 4 0 0 0 0 1 0 25 22 35 60 36 80 0 0 0 0 0 0l0 3c0 6-1 12-4 15 0 1 0 1-1 1z m-121 226c1 32 1 64-26 90-30 27-75 29-88 29l-10 0c-1 0-1 0-1 0-65-3-107-36-118-89-1-7 1-13 3-16 3-5 8-8 14-10 0 0 1 0 1 0l51-6c1 0 2 0 4 0 9 2 16 9 18 19 4 17 19 21 28 22l3 0c8 0 16-3 19-8 5-7 5-17 4-27-9-1-18-2-28-3-21-3-43-7-62-15-41-17-64-52-64-97 0-29 9-53 27-69 16-16 38-24 63-24 15 0 27 1 41 5 0 0 0 0 0 0 16 5 29 13 44 26 5-7 11-14 24-25 1-1 2-1 3-2 9-3 18-2 25 3 0 0 0 0 0 0 11 10 30 26 40 35 8 7 10 18 4 29-1 0-1 1-1 1l-2 3c-9 11-16 19-16 38l0 82c0 3 0 6 0 9z m-106-109c0-1 0-1 0-1-5-9-12-15-20-17-1 0-3 0-4-1 0 0-1 0-2 0-17 0-19 18-19 26 0 20 9 31 30 37 6 2 14 3 23 3l0-3c0-17 0-30-8-44z"/>
<glyph glyph-name="bebo" unicode="&#57999;" d="M305 5c-50-8-101-8-148 15-80 39-123 104-125 194-1 40 0 80 0 120 0 45 0 91 0 136 0 17 8 30 23 37 15 8 30 6 43-4 11-8 16-19 16-33-1-84 0-169 0-254 0-67 42-120 109-131 41-7 82-5 118 20 44 30 66 84 54 136-12 52-55 92-107 99-15 2-30 2-45 2-23 0-41 16-43 38-1 23 14 41 38 43 127 12 217-70 238-169 24-114-56-232-171-249z"/>
<glyph glyph-name="behance" unicode="&#58010;" d="M396 343c-65 0-96-35-111-64-9-19-13-38-15-50-2 11-8 24-17 34-5 5-10 9-16 12 13 9 26 25 26 56 0 28-9 52-28 68-17 14-40 22-67 22l-160 0c-4 0-8-4-8-8l0-307c0-5 4-9 8-9l160 0c0 0 1 0 1 0 7 0 32 1 56 14 20 10 43 30 48 70 4-17 12-37 28-55 22-23 54-35 95-35 0 0 2 0 4 0 10 0 37 1 61 13 32 14 48 41 48 77 0 4-3 8-8 8l-54 0c-2 0-4-1-6-2-2-2-2-4-2-6 0-1 0-8-6-14-7-7-19-11-35-11 0 0-1 0-1 0 0 0 0 0-1 0-4 0-15 1-26 7-10 6-16 16-18 30l151 0c4 0 8 3 8 7 0 3 8 67-28 109-20 22-50 34-87 34z m-42-92c4 12 15 30 43 30 12 0 21-3 27-9 7-7 10-15 11-21z m-267-17l81 0c3 0 24-1 24-34 0-21-9-31-28-32l-77 0z m76 64l-76 0 0 52 81 0c2 0 14-2 14-24 0-28-11-28-19-28z m167 56l127 0c4 0 8 3 8 8l0 38c0 4-4 8-8 8l-127 0c-5 0-8-4-8-8l0-38c0-5 3-8 8-8z"/>
<glyph glyph-name="bing" unicode="&#58011;" d="M463 292c0 5-4 10-8 11l-244 75c-4 1-7-1-5-6l46-98c2-4 7-9 11-11l62-28c5-2 5-6 1-8l-266-139c-4-3-4-2-1 1l102 91c4 3 7 10 7 14l0 275c0 5-4 10-9 11l-102 32c-4 1-8-2-8-6l0-418c0-4 3-10 7-13l104-73c4-3 10-3 14 0l281 167c4 3 8 8 8 13z"/>
<glyph glyph-name="blogger" unicode="&#58012;" d="M511 296c0 12-11 23-23 23l-23 0c-15 0-30 0-36 6-9 8-11 23-14 44-5 39-8 41-14 55-22 47-83 83-125 88l-113 0c-89 0-162-73-162-162l0-189c0-88 73-161 162-161l186 0c89 0 161 73 161 161 0 0 1 135 1 135z m-346 84l90 0c17 0 31-14 31-31 0-17-14-31-31-31l-90 0c-17 0-31 14-31 31 0 17 14 31 31 31z m182-247l-182 0c-17 0-31 14-31 31 0 17 14 31 31 31l182 0c17 0 31-14 31-31 0-17-14-31-31-31z"/>
<glyph glyph-name="delicious" unicode="&#58013;" d="M502 512l-492 0c-5 0-10-5-10-10l0-492c0-5 5-10 10-10l492 0c5 0 10 5 10 10l0 492c0 5-5 10-10 10z m-264-51c5 0 9-4 9-9l0-178c0-5-4-9-9-9l-178 0c-5 0-9 4-9 9l0 178c0 5 4 9 9 9z m36-410c-5 0-9 4-9 9l0 178c0 5 4 9 9 9l178 0c5 0 9-4 9-9l0-178c0-5-4-9-9-9z"/>
<glyph glyph-name="deviantart" unicode="&#58014;" d="M180 192l0 85c-58-16-80-51-86-85z m68 178l0-46c3 0 5 0 8 0 71 0 135-17 181-46 46-28 75-67 75-110 0-9-1-18-3-26l-245 0 0 129c28-1 50-4 68-10l0-69 86 0c-8 46-45 94-162 94-3 0-5 0-8 0l0-144-245 0c-2 8-3 17-3 26 0 43 29 82 75 110 29 18 65 32 105 39l0 47c22 4 45 6 68 6z"/>
<glyph glyph-name="digg" unicode="&#58015;" d="M196 410l-34 0c-5 0-8-4-8-9l0-34c0-5 3-9 8-9l34 0c5 0 9 4 9 9l0 34c0 5-4 9-9 9z m0-72l-34 0c-5 0-8-4-8-9l0-157c0-4 3-8 8-8l34 0c5 0 9 4 9 8l0 157c0 5-4 9-9 9z m307 0l-116 0c-4 0-8-4-8-9l0-157c0-4 4-8 8-8l65 0c5 0 9-4 9-9l0-3c0-5-4-9-9-9l-65 0c-4 0-8-4-8-8l0-24c0-5 4-9 8-9l116 0c5 0 9 4 9 9l0 218c0 5-4 9-9 9z m-42-125c0-4-4-8-9-8l-13 0c-5 0-9 4-9 8l0 75c0 5 4 9 9 9l13 0c5 0 9-4 9-9z m-336 197l-35 0c-4 0-8-4-8-9l0-55c0-4-4-8-9-8l-64 0c-5 0-9-4-9-9l0-157c0-4 4-8 9-8l116 0c4 0 8 4 8 8l0 229c0 5-4 9-8 9z m-43-197c0-4-4-8-9-8l-13 0c-5 0-9 4-9 8l0 75c0 5 4 9 9 9l13 0c5 0 9-4 9-9z m268 125l-116 0c-5 0-9-4-9-9l0-157c0-4 4-8 9-8l65 0c4 0 8-4 8-9l0-3c0-5-4-9-8-9l-65 0c-5 0-9-4-9-8l0-24c0-5 4-9 9-9l116 0c5 0 8 4 8 9l0 218c0 5-3 9-8 9z m-43-125c0-4-4-8-8-8l-14 0c-5 0-9 4-9 8l0 75c0 5 4 9 9 9l14 0c4 0 8-4 8-9z"/>
<glyph glyph-name="dribble" unicode="&#58138;" d="M256 0c141 0 256 115 256 256 0 141-115 256-256 256-141 0-256-115-256-256 0-141 115-256 256-256z m0 60c-41 0-79 12-112 35 13 22 54 78 142 111 22-59 33-110 38-134-22-8-45-12-68-12z m125 45c-5 24-15 66-33 116 9 1 18 2 27 2 32 0 59-6 73-9-10-43-33-82-67-109z m36 263c19-28 31-61 34-96-18 3-49 7-84 7-14 0-27 0-40-2 0 1-1 2-1 3-3 6-6 13-9 19 53 24 84 52 100 69z m-161 84c44 0 87-15 121-42-12-13-39-39-87-58-23 42-48 78-62 98 9 1 19 2 28 2z m-92-23c11-17 36-53 62-97-69-17-129-21-158-21 15 50 49 93 96 118z m92-152c2-4 4-9 6-13-87-30-141-97-162-127-25 33-39 72-40 113 30 0 111 3 196 27z"/>
<glyph glyph-name="dropbox" unicode="&#58139;" d="M147 113c-3 0-6 0-8 2l-36 19c0 0-1 0-1 0 0 0 0 0 0-1l0-11c0-3 3-8 6-10l137-84 0 160-87-71c-3-3-7-4-11-4z m2 24c2 0 4 0 6 1l75 65c0 1 1 2 1 2 0 1-1 1-2 2l-133 81c-1 0-3 1-4 1-2 0-4-1-6-2l-78-66c0-1-1-1-1-2 1 0 1-1 2-1l137-81c1 0 2 0 3 0z m-56 182c1 0 3 1 4 1l143 88c1 0 1 1 1 1 0 1 0 2-1 2l-86 72c-1 1-3 1-5 1-2 0-3 0-4-1l-144-88c-1-1-1-1-1-2 0 0 0-1 1-1l86-71c2-1 4-2 6-2z m418 76l-144 88c-1 1-2 1-4 1-2 0-4 0-5-1l-86-72c-1 0-1-1-1-2 0 0 0-1 1-1l143-88c2 0 3-1 4-1 3 0 4 1 6 2l86 71c1 0 1 1 1 1 0 1 0 1-1 2z m-7-174l-78 66c-2 1-4 2-6 2-1 0-2-1-4-1l-133-81c-1-1-1-1-2-2 0 0 1-1 1-2l75-65c2-1 4-1 6-1 1 0 3 0 4 0l136 81c1 0 2 1 2 1 0 1-1 1-1 2z m-95-87l-36-19c-2-2-5-2-8-2-4 0-8 1-11 4l-87 71 0-159c0-1 0-1 0-1 0 0 0 0 1 0l136 84c3 2 6 7 6 10l0 11c0 1 0 1 0 1 0 0-1 0-1 0z"/>
<glyph glyph-name="ebay" unicode="&#58140;" d="M511 312c-2 2-4 4-7 4l-27 0c-3 0-6-2-7-5l-35-70-35 70c-1 3-4 5-7 5l-30 0c-2 0-3-1-5-2-9 4-21 6-35 6-44 0-58-19-62-31-11 19-32 31-58 31-17 0-29-4-37-9l0 44c0 5-3 9-8 9l-25 0c-5 0-8-4-8-9l0-54c-12 11-29 19-53 19-46 0-72-24-72-68 0-42 26-66 73-66 26 0 42 8 51 17 0-3 0-4 0-4 0-3 1-5 2-6 2-2 4-3 6-3l25 0c4 0 7 3 8 6 8-5 21-10 38-10 22 0 41 9 53 24 8-15 26-24 50-24 19 0 32 5 41 10 1-3 4-6 8-6l23 0c0 0 0 0 0 0 5 0 9 4 9 8 0 1-1 1-1 2 0 2 0 9 0 14l0 34 26-49-20-38c-2-3-2-6 0-9 1-2 4-4 7-4l28 0c3 0 6 2 7 5l77 151c1 2 1 5 0 8z m-440-25c13 0 23-6 26-16l-53 0c4 11 16 16 27 16z m25-55c0-1-5-13-24-13-15 0-25 8-29 19l61 0c-4 0-7-2-8-6z m101-12c-21 0-31 16-31 33 0 17 10 33 31 33 18 0 30-13 30-33 0-19-12-33-30-33z m105 58c0 0 1 9 19 9 5 0 20-1 23-12l-23 0c-7 0-14 0-21-1 1 1 2 2 2 4z m-33-14c0 2 0 4-1 6l15 0c-5-1-10-3-14-6z m43-45c-7 0-18 1-18 12 0 2 0 6 12 9 9 2 22 2 38 2-1-5-4-23-32-23z"/>
<glyph glyph-name="evernote" unicode="&#58141;" d="M461 419c0 33-49 37-49 37l-114 7c0 0-3 32-26 43-13 6-53 6-91 6-9 0-16-7-16-16l0-73c0-12-9-21-21-21l-69 0c-18 0-32-7-32-22 0-15 21-175 50-204 17-17 121-30 143-30 22 0 15 65 21 65 6 0 12-38 47-46 34-9 80-8 83-33 3-32 6-75-16-78l-48-2c-14 0-12 39-9 39 5 0 9 0 12 0 5 0 10 5 10 10l1 20c0 6-5 11-10 11-21 1-66-4-68-43-3-48 5-70 11-75 5-5 16-14 108-14 131 0 83 386 83 419z m-64-157c-3-4-17 8-28 8-11 0-21-9-24-5-3 3 3 31 24 31 21 0 32-31 28-34z m-271 237l-58-59c-4-5-1-12 6-12l57 0c4 0 7 3 7 7l0 59c0 6-8 9-12 5z"/>
<glyph glyph-name="facebook" unicode="&#58142;" d="M135 239l56 0 0-231c0-4 4-8 8-8l95 0c5 0 9 4 9 8l0 230 64 0c4 0 8 3 8 8l10 85c1 2 0 4-2 6-1 2-4 3-6 3l-74 0 0 53c0 16 8 24 25 24 3 0 49 0 49 0 5 0 8 4 8 9l0 78c0 4-3 8-8 8l-67 0c0 0-1 0-3 0-12 0-52-2-84-32-35-32-30-71-29-78l0-62-59 0c-5 0-8-4-8-8l0-84c0-5 3-9 8-9z"/>
<glyph glyph-name="flickr" unicode="&#58143;" d="M231 256c0-64-52-115-116-115-63 0-115 51-115 115 0 64 52 115 115 115 64 0 116-51 116-115z m281 0c0-64-52-115-115-115-64 0-116 51-116 115 0 64 52 115 116 115 63 0 115-51 115-115z"/>
<glyph glyph-name="forrst" unicode="&#58154;" d="M474 2l-113 264-105 246-112-262-106-248c-1-1-1-1-1-2 1 0 1 0 2 0l166 0c3 0 5 2 5 4l0 93c0 4-3 9-5 12l-30 25c-5 4-7 12-5 18 2 3 5 5 9 5 3 0 6-1 8-3l23-18 0 69c0 7 6 13 13 13l48 0c7 0 13-6 13-13l0-38c0-1 0-1 0-1 0 0 1 0 2 0l29 15c2 0 4 1 6 1 5 0 9-3 11-7 3-6 0-14-7-17l-36-18c-2-2-5-6-5-9l0-25c0 0 0-1 0-1 0 0 1 0 2 1l64 32c2 1 4 1 6 1 5 0 9-3 11-7 3-6 0-14-6-17l-72-36c-2-2-5-6-5-9l0-66c0-2 2-4 4-4l185 0c1 0 1 0 2 0 0 1 0 1-1 2z"/>
<glyph glyph-name="foursquare" unicode="&#58155;" d="M493 214c23 23 23 61 0 84l-1 1-205-205c-3-2-5-4-8-6-4-3-8-5-13-6-4-1-8-2-13-2l-4 0c-2 0-4 1-6 1-4 1-8 3-12 5-4 2-7 4-10 8-1 0-1 0-1 0 0 0 0 0 0 0l-135 135c-9 9-14 21-14 34 0 12 5 24 14 33l40 40c9 8 21 13 33 13 12 0 24-5 33-14l62-62 133 133-88 88c-24 23-62 23-85 0l-195-196c-24-23-24-61 0-84l195-196c23-23 61-23 85 0z m-299 76l-13 12c0 0 0 0 0 0l-12 12c-7 7-17 7-24 0l0 0-40-39c-6-7-6-17 0-24l106-106 31-30c6-7 17-7 24 0 0 0 0 0 0 0l30 30 211 211c7 6 7 18 0 25 0 0 0 0 0 0l-20 20-20 20c-6 6-15 6-22 2-1-1-2-1-3-2l-181-181-9-9-12 12-46 47z"/>
<glyph glyph-name="foursquare-alt" unicode="&#58156;" d="M433 497c-10 14-27 15-42 15-90 0-179 0-269 0-5 0-10-1-15-2-16-2-30-16-33-32-3-16-1-33-1-49 0-132 0-263 0-394 0-9 0-17 5-24 8-11 24-14 36-8 7 4 12 10 18 16 38 45 78 90 116 135 5 5 10 10 17 10 27 1 55-1 83 0 9 1 19 3 26 10 9 9 12 23 15 35 16 76 30 153 46 229 4 19 9 41-2 59z m-70-123c-2-8-12-7-18-8-34-1-67 1-100 0-10 0-21-6-22-17-2-14-1-35 16-38 33-4 66 1 98-2 11 0 11-13 10-21-4-19-7-39-13-58-1-6-7-9-13-9-27-2-55 1-83-1-11 0-18-10-24-18-28-34-56-68-84-101-2 107 0 214-1 321 0 8 0 17 3 24 4 9 15 9 23 10 66-1 131-1 196 0 11-1 22 1 25-9 4-12-7-57-13-73z"/>
<glyph glyph-name="google-plus" unicode="&#58157;" d="M500 289l-32 0 0 33c0 6-6 12-13 12l-43 0c-7 0-12-6-12-12l0-33-32 0c-7 0-13-5-13-12l0-43c0-7 6-12 13-12l32 0 0-32c0-7 5-13 12-13l43 0c7 0 13 6 13 13l0 32 32 0c7 0 12 5 12 12l0 43c0 7-5 12-12 12z m-334 54c14 0 29-4 41-12l14-9c4-4 11-3 15 1l40 40c3 3 4 6 4 10 0 3-2 7-5 9l-24 16c0 0-1 1-1 1l-23 11c0 0-1 0-1 0-19 8-40 12-61 12-44 0-85-17-116-47-31-31-49-73-49-118 0-45 17-87 48-118 31-31 74-49 120-49 45 0 87 17 115 48 23 24 37 56 41 93 0 0 0 1 0 1l0 33c0 1 0 1 0 2l-2 11c-1 6-6 11-12 11l-141 0c-6 0-12-6-12-12l0-49c0-7 6-12 12-12l72 0c-3-8-8-15-15-22-14-16-36-25-58-25-24 0-46 10-62 25-32 34-32 92 1 124 15 16 37 25 59 25z"/>
<glyph glyph-name="grooveshark" unicode="&#58158;" d="M256 512c-141 0-256-115-256-256 0-141 115-256 256-256 141 0 256 115 256 256 0 141-115 256-256 256z m-85-108c-1 1-6 3-7 1l0-5c0-3 1-6 1-9 4-36 6-74-5-108-6-19-17-36-31-49-12-11-30-23-47-22-3 0-6 1-9 2-18 6-19 26-19 42-1 17 2 35 6 52 1 5 3 10 5 15 19 58 66 105 123 125 22 8 45 12 68 12 68 0 132-35 169-92 10-14 17-29 23-45l-1 0c2-5 4-10 5-15 4-17 7-35 6-52 0-33-10-69-51-52-20 9-36 25-48 42-14 20-28 39-44 57-14 17-30 33-47 47-16 15-35 29-55 39-13 6-27 11-42 15z"/>
<glyph glyph-name="html5" unicode="&#58159;" d="M38 512c-4 0-8-4-8-9l40-445c1-4 5-9 9-10l168-47c5-1 12-1 17 0l169 47c4 1 8 6 9 11l40 444c0 5-4 9-8 9z m359-102c0-4-1-11-1-16l-1-12c-1-5-1-11-2-15 0-3 0-6 0-6 0 0-4 0-9 0l-119 0c-5 0-9 0-9 0 0 0-4 0-9 0l-63 0c-4 0-8-4-7-9l3-41c1-4 5-8 10-8l57 0c5 0 9 0 9 0 0 0 4 0 9 0l99 0c4 0 12 0 16 0 4 0 7-4 7-8-1-4-1-11-2-16l-11-132c-1-5-1-11-2-13 0-3-4-6-8-7l-100-28c-4-1-8-2-8-2 0 0-4 1-8 2l-100 28c-5 1-9 6-9 10l-6 72c-1 5 3 9 7 9l9 0c5 0 13 0 18 0l13 0c5 0 9-4 9-9l3-28c0-4 4-9 9-11l46-12c5-1 9-2 9-2 0 0 4 1 8 2l47 12c4 2 8 7 9 11l5 57c0 4-3 8-8 8l-52 0c-5 0-9 0-9 0 0 0-4 0-9 0l-109 0c-5 0-9 4-10 9l-12 139c0 5-1 12-1 16-1 4 3 8 7 8l125 0c5 0 9 0 9 0 0 0 4 0 9 0l124 0c5 0 8-4 8-8z"/>
<glyph glyph-name="instagram" unicode="&#58170;" d="M66 512l380 0c36 0 66-30 66-66l0-380c0-36-30-66-66-66l-380 0c-36 0-66 30-66 66l0 380c0 36 30 66 66 66z m307-57c-13 0-23-10-23-23l0-55c0-13 10-23 23-23l58 0c13 0 23 10 23 23l0 55c0 13-10 23-23 23z m81-160l-45 0c4-13 7-28 7-43 0-86-72-155-160-155-87 0-159 69-159 155 0 15 3 30 7 43l-47 0 0-216c0-11 9-20 20-20l357 0c11 0 20 9 20 20z m-198 62c-56 0-102-45-102-100 0-55 46-100 102-100 57 0 103 45 103 100 0 55-46 100-103 100z"/>
<glyph glyph-name="kickstarter" unicode="&#58171;" d="M205 338l94 136c18 25 41 38 69 38 23 0 42-8 59-24 17-17 25-36 25-59 0-17-4-31-13-44l-85-123 104-132c10-13 15-28 15-45 0-24-8-43-24-60-16-17-36-25-59-25-26 0-45 8-58 25l-127 158 0-87c0-25-4-44-13-58-16-25-39-38-69-38-27 0-48 9-63 28-14 17-21 39-21 67l0 324c0 26 7 48 21 66 15 18 36 27 62 27 25 0 46-9 63-27 9-10 15-21 18-31 1-6 2-18 2-36z"/>
<glyph glyph-name="lastfm" unicode="&#58172;" d="M430 292c-5 1-9 3-13 4-32 11-43 15-43 33 0 16 11 27 27 27 13 0 22-6 31-19 3-5 10-7 15-4l32 17c2 1 5 4 6 7 0 3 0 7-1 9-19 34-46 51-82 51-27 0-49-9-66-25-16-16-24-38-24-64 0-54 34-77 94-98 34-12 42-16 42-34 0-22-19-38-45-38-1 0-2 0-2 0-29 1-37 15-50 46-21 50-46 110-48 115 0 0 0 0 0 0-27 64-80 101-146 101-86 0-157-74-157-164 0-90 71-164 157-164 48 0 92 22 122 60 3 4 4 8 2 12l-19 46c-2 4-6 7-11 7-4 0-9-2-11-7-16-32-48-52-83-52-51 0-93 44-93 98 0 54 42 98 93 98 38 0 72-23 86-58 0 0 0 0 0 0l46-110 6-13c22-54 55-79 107-79l1 0c62 0 109 43 109 101 0 57-31 80-82 97z"/>
<glyph glyph-name="linkedin" unicode="&#58173;" d="M119 347l-103 0c-4 0-8-3-8-8l0-330c0-5 4-8 8-8l103 0c5 0 8 3 8 8l0 330c0 5-3 8-8 8z m-51 164c-38 0-68-30-68-67 0-38 30-68 68-68 37 0 68 30 68 68 0 37-31 67-68 67z m313-156c-42 0-72-17-91-37l0 21c0 5-3 8-8 8l-98 0c-5 0-9-3-9-8l0-330c0-5 4-8 9-8l102 0c5 0 8 3 8 8l0 163c0 55 15 77 54 77 42 0 45-35 45-80l0-160c0-5 4-8 8-8l103 0c4 0 8 3 8 8l0 181c0 82-16 165-131 165z"/>
<glyph glyph-name="livejournal" unicode="&#58174;" d="M270 479c-32 0-63-6-92-18l-50 50c-1 1-3 1-5 0-48-30-90-71-120-119-1-2-1-4 1-6l48-47c-15-31-22-65-22-99 0-132 108-240 240-240 132 0 239 108 239 240 0 132-107 239-239 239z m95-217l16-70 16-75-74 16-71 17-190 191c24 49 64 88 114 110z m7-65l-12 56c-44-20-78-55-98-98l55-13c12 24 32 44 55 55z"/>
<glyph glyph-name="myspace" unicode="&#58175;" d="M423 251c45 0 82 36 82 81 0 45-37 82-82 82-45 0-82-37-82-82 0-45 37-81 82-81z m-182-14c41 0 74 33 74 74 0 41-33 74-74 74-42 0-75-33-75-74 0-41 33-74 75-74z m-167-12c37 0 67 30 67 67 0 37-30 68-67 68-38 0-68-31-68-68 0-37 30-67 68-67z m0-14c-44 0-74-39-74-76l0-23c0-7 6-14 14-14l120 0c7 0 13 7 13 14l0 23c0 37-29 76-73 76z m166 11c-48 0-81-43-81-83l0-26c0-8 7-15 15-15l133 0c8 0 15 7 15 15l0 26c0 40-33 83-82 83z m183 12c-53 0-89-48-89-92l0-29c0-8 6-15 15-15l148 0c8 0 15 7 15 15l0 29c0 44-36 92-89 92z"/>
<glyph glyph-name="opera" unicode="&#58186;" d="M256 0c-31 0-59 6-86 18-27 13-51 31-72 54-23 26-40 54-51 83-11 30-16 64-16 101 0 37 5 70 16 100 11 30 28 57 51 83 22 24 46 42 72 55 27 12 56 18 86 18 31 0 60-6 86-18 27-13 51-31 72-55 23-25 40-53 51-83 11-29 16-63 16-100 0-38-5-72-16-101-11-30-28-57-51-83-21-23-45-41-71-54-27-12-56-18-87-18z m0 33c35 0 57 13 70 39 13 28 21 88 21 184 0 96-8 156-21 183-13 26-35 39-70 39-35 0-57-13-70-39-13-28-21-88-21-183 0-96 8-156 21-184 13-26 35-39 70-39z"/>
<glyph glyph-name="paypal" unicode="&#58187;" d="M474 423c21-38 14-83 6-110-44-145-244-137-273-137-29 0-36-27-36-27l-21-94c-6-33-36-32-36-32 0 0-39 0-65 0-2 0-4 1-5 1 0-6 1-24 22-24 26 0 65 0 65 0 0 0 30-2 36 31l22 95c0 0 7 27 35 27 29 0 229-8 274 137 10 32 18 91-24 133z m-344-348l21 95c0 0 7 27 36 27 29 0 229-8 273 137 16 52 27 178-174 178l-146 0c0 0-31 1-38-31l-95-411c0 0-5-26 22-26 26 0 65 0 65 0 0 0 30-2 36 31z m55 240l19 83c0 0 6 23 26 26 20 4 54 0 63-2 56-10 44-64 44-64-11-83-140-71-140-71-20 7-12 28-12 28z"/>
<glyph glyph-name="picasa" unicode="&#58188;" d="M362 489c-34 15-69 22-106 22-31 0-61-5-89-16 6-6 186-169 195-177 0 12 0 167 0 171z m-238-452c0 10 0 208 0 220-8-8-103-94-106-96 21-52 58-95 106-124z m-124 218c0-22 3-44 9-66 7 6 223 202 227 206-4 4-94 85-97 88-86-44-139-131-139-228z m151-111c0-5 0-118 0-122 26-12 53-19 81-21l47 0c89 8 168 62 207 143-9 0-329 0-335 0z m238 330c0-10 0-297 0-303 5 0 104 0 108 0 10 27 15 56 15 84 0 89-47 172-123 219z"/>
<glyph glyph-name="pinterest" unicode="&#58189;" d="M405 460c-35 33-84 52-137 52-82 0-132-33-160-61-34-35-53-81-53-126 0-57 24-101 64-117 2-1 5-2 8-2 8 0 15 6 17 15 1 5 4 17 6 23 3 10 0 15-6 23-12 14-17 30-17 51 0 62 47 129 133 129 68 0 111-39 111-102 0-39-9-76-24-103-11-19-30-41-59-41-12 0-24 5-31 14-6 9-9 20-6 31 3 13 7 27 11 40 8 23 15 46 15 64 0 30-19 51-47 51-36 0-64-36-64-82 0-23 6-40 9-47-5-19-31-132-36-153-3-12-21-111 8-118 33-9 62 86 65 97 3 9 11 42 16 63 16-15 42-26 66-26 47 0 89 21 119 59 28 37 44 89 44 146 0 44-19 88-52 120z"/>
<glyph glyph-name="rss" unicode="&#58190;" d="M149 75c0 40-33 74-74 74-41 0-74-34-74-74 0-41 33-74 74-74 41 0 74 33 74 74z m-140 157c60 0 116-23 158-65 42-43 65-99 65-159 0-4 3-8 8-8l95 0c5 0 8 4 8 8 0 185-150 336-334 336-4 0-8-4-8-9l0-95c0-4 4-8 8-8z m0 280c-4 0-8-4-8-8l0-95c0-5 4-8 8-8 216 0 391-176 391-393 0-4 3-8 8-8l95 0c4 0 8 4 8 8 0 278-225 504-502 504z"/>
<glyph glyph-name="sharethis" unicode="&#58191;" d="M181 256c0-2-1-3-1-5l184-92c15 13 35 22 58 22 50 0 90-41 90-91 0-50-40-90-90-90-50 0-91 40-91 90 0 2 1 4 1 6l-184 91c-15-13-35-21-58-21-50 0-90 40-90 90 0 50 40 90 90 90 23 0 43-8 58-21l184 91c0 2-1 4-1 6 0 50 41 90 91 90 50 0 90-40 90-90 0-50-40-91-90-91-23 0-43 9-58 22l-184-92c0-2 1-3 1-5z"/>
<glyph glyph-name="skype" unicode="&#58202;" d="M494 202c4 16 5 34 5 51 0 133-107 241-240 241-14 0-28-1-41-3-22 13-47 21-75 21-77 0-139-63-139-140 0-25 7-50 19-70-3-16-5-32-5-49 0-133 108-240 241-240 15 0 29 1 44 4 19-11 42-17 66-17 77 0 139 63 139 140 0 22-5 43-14 62z m-112-64c-11-16-27-28-49-37-21-9-46-13-75-13-35 0-64 6-86 18-16 9-30 21-40 35-10 15-15 30-15 44 0 8 3 16 10 22 6 7 15 10 25 10 8 0 15-3 21-8 6-4 10-11 14-20 5-10 9-18 14-25 5-6 12-11 20-15 9-5 21-7 35-7 20 0 36 5 49 13 12 8 18 18 18 30 0 10-3 17-10 23-6 6-15 11-25 14-11 3-26 7-45 11-24 5-46 12-63 19 0 0 0 0 0 0-17 7-31 17-41 30-10 13-16 29-16 48 0 19 6 35 17 49 10 14 26 25 46 33 20 7 44 11 71 11 22 0 41-3 56-8 16-5 30-11 40-19 11-9 19-18 23-27 5-9 8-18 8-27 0-9-3-17-10-24-6-6-15-10-25-10-9 0-16 2-20 7-5 4-10 10-15 19-6 11-13 20-21 26-8 7-22 10-41 10-17 0-31-4-41-11-10-6-15-14-15-23 0-5 1-10 5-14 3-4 8-7 14-11 6-3 13-5 19-7 7-2 18-5 34-8 16-4 31-8 45-12 3 0 5-1 8-2 16-5 30-12 41-19 12-7 21-17 27-29 7-11 10-25 10-42 0-20-6-38-17-54z"/>
<glyph glyph-name="soundcloud" unicode="&#58203;" d="M25 155c1 0 2 1 2 3l6 45-6 47c0 1-1 2-2 2-1 0-2-1-2-2l-5-47 5-45c0-2 1-3 2-3z m-19 18c1 0 2 1 2 2l4 28-4 29c0 1-1 2-2 2-1 0-2-1-2-2l-4-29 4-28c0-1 1-2 2-2z m41 85c0 2-1 3-2 3-2 0-3-1-3-3l-5-55 5-53c0-2 1-3 3-3 1 0 2 1 2 3l6 53z m18-113c2 0 3 2 3 3l5 55-5 57c0 2-1 3-3 3-1 0-3-1-3-3l-4-57 4-55c0-1 2-3 3-3z m21-1c1 0 3 2 3 4l0 0 5 55-5 53c0 2-2 3-3 3-2 0-4-1-4-3l-4-53 4-55c0-2 2-4 4-4z m29 59l-5 86c0 2-2 4-4 4-2 0-4-2-4-4l-4-86 4-55c0-2 2-4 4-4 2 0 4 2 4 4l0 0z m12-59c2 0 4 2 4 4l0 0 4 55-4 105c0 3-2 5-4 5-2 0-4-2-4-5l-4-105 4-55c0-2 2-4 4-4z m21 178c-3 0-5-2-5-5l-3-114 3-54c0-3 2-5 5-5 2 0 5 2 5 5l0 0 4 54-4 114c0 3-3 5-5 5z m21-178c3 0 5 2 5 5l0 0 4 54-4 118c0 3-2 5-5 5-3 0-5-2-5-5l-3-118 3-54c0-3 2-5 5-5z m21 0c3 0 6 2 6 5l0 0 3 54-3 115c0 3-3 6-6 6-3 0-5-3-5-6l-3-115 3-54c0-3 2-5 5-5z m31 59l-3 111c0 3-3 6-6 6-4 0-6-3-6-6l-3-111 3-53c0-4 2-6 6-6 3 0 6 2 6 6l0 0z m12-59c4 0 7 3 7 6l0 0 3 53-3 132c0 3-3 6-7 6-3 0-6-3-6-6l-3-132 3-53c0-3 3-6 6-6z m22 210c-4 0-7-4-7-7l-3-144 3-52c0-4 3-7 7-7 4 0 7 3 7 7l0 0 3 52-3 144c0 3-3 7-7 7z m19-210c1 0 174-1 175-1 35 0 63 29 63 64 0 35-28 64-63 64-9 0-17-2-24-5-5 57-53 103-111 103-14 0-28-3-40-8-5-2-6-4-6-8l0-202c0-4 3-7 6-7z"/>
<glyph glyph-name="stumbleupon" unicode="&#58204;" d="M274 304c0-5 4-8 8-8l85 0c4 0 8 3 8 8l0 32c0 66-53 119-119 119-66 0-119-53-119-119l0-157c0-10-8-18-18-18-10 0-18 8-18 18l0 70c0 4-4 8-8 8l-85 0c-4 0-8-4-8-8l0-73c0-66 53-119 119-119 66 0 119 53 119 119l0 160c0 10 8 18 18 18 10 0 18-8 18-18z m230-48l-85 0c-4 0-8-4-8-9l0-71c0-10-8-18-18-18-10 0-18 8-18 18l0 71c0 5-4 9-8 9l-85 0c-4 0-8-4-8-9l0-71c0-66 53-119 119-119 66 0 119 53 119 119l0 71c0 5-4 9-8 9z"/>
<glyph glyph-name="technorati" unicode="&#58205;" d="M256 480c-141 0-256-92-256-204 0-57 30-111 81-150l-29-83c-1-3 0-7 2-9 2-2 4-2 6-2 1 0 2 0 3 0l122 47c23-5 47-8 71-8 141 0 256 92 256 205 0 112-115 204-256 204z m101-263c-27-17-63-26-101-26-38 0-74 9-101 26-25 16-39 37-39 59 0 22 14 43 39 59 27 16 63 26 101 26 38 0 74-10 101-26 25-16 39-37 39-59 0-22-14-43-39-59z"/>
<glyph glyph-name="telegram" unicode="&#58206;" d="M9 265l118-44 46-147c3-9 14-13 22-6l66 53c6 6 16 6 23 1l119-86c8-6 20-2 22 8l87 418c2 11-9 20-19 16l-484-187c-12-4-12-21 0-26z m156-20l231 142c4 2 8-4 5-7l-191-177c-6-6-11-14-12-23l-6-48c-1-7-10-7-12-1l-25 87c-3 10 1 21 10 27z"/>
<glyph glyph-name="tumblr" unicode="&#58207;" d="M413 121c-3 1-6 1-9-1-23-15-47-23-70-23-13 0-24 3-34 9-6 4-11 9-13 15-2 5-4 18-4 53l0 118 109 0c5 0 8 4 8 9l0 78c0 4-3 8-8 8l-109 0 0 117c0 4-4 8-8 8l-71 0c-4 0-8-3-8-7-3-25-9-45-17-61-7-15-18-29-31-40-13-11-29-19-47-25-4-1-6-5-6-8l0-70c0-5 4-9 8-9l47 0 0-165c0-24 2-42 8-55 5-13 14-26 27-37 14-11 29-20 48-26 18-6 39-9 62-9 21 0 40 2 58 6 18 4 38 12 59 22 3 1 5 4 5 7l0 78c0 3-2 6-4 8z"/>
<glyph glyph-name="twitter" unicode="&#58218;" d="M500 417c-8-3-16-6-24-9 10 12 17 25 22 39 1 4 0 7-3 9-2 2-6 3-9 1-18-11-37-18-58-23-20 20-48 32-77 32-60 0-110-50-110-110 0-5 1-10 1-15-75 7-145 44-193 103-2 2-4 3-7 3-3 0-5-2-6-4-10-17-15-36-15-55 0-27 9-52 26-72-5 2-10 4-15 7-2 1-5 1-8 0-2-2-4-4-4-7 0-1 0-1 0-2 0-39 21-75 54-94-3 0-6 1-9 1-3 1-5 0-7-3-2-2-3-5-2-7 12-38 43-66 80-74-31-20-66-30-103-30-8 0-16 1-24 2-4 0-7-2-9-6-1-4 1-8 4-10 48-30 103-47 160-47 112 0 182 53 221 97 49 56 77 129 77 201 0 3 0 6-1 9 20 14 36 32 50 52 2 3 1 7-1 10-2 3-6 4-10 2z"/>
<glyph glyph-name="viber" unicode="&#58219;" d="M438 297c1 72-61 139-137 148-2 0-3 0-5 0-4 1-8 2-12 2-15 0-19-11-20-18-2-6-1-12 3-16 5-7 14-8 21-9 2 0 4-1 6-1 68-15 91-39 103-107 0-2 0-4 0-6 1-8 2-25 20-25 1 0 3 0 5 0 17 3 16 18 16 26 0 2 0 4 0 5 0 0 0 1 0 1z m-158 174c2 0 4 0 6 0 112-18 164-71 178-184 0-2 0-4 0-7 0-9 1-27 20-28l1 0c6 0 11 2 15 6 6 6 5 16 5 24 0 2 0 3 0 5 1 116-99 221-215 225 0 0-1 0-1 0 0 0-1 0-1 0-2 0-3 0-4 0-2 0-4 0-6 0-19 0-22-13-23-21-1-18 17-19 25-20z m179-331c-3 2-5 4-8 6-12 10-25 19-38 28-2 2-5 3-7 5-17 12-31 17-45 17-18 0-35-10-48-30-6-9-13-14-22-14-5 0-11 2-17 5-53 24-90 60-111 108-10 23-7 38 11 50 10 7 29 20 28 45-1 29-64 114-90 123-11 5-23 5-35 1-30-11-52-29-63-52-10-23-10-50 2-78 32-80 79-150 137-208 57-57 127-104 208-138 7-4 15-5 20-7 2 0 4 0 5-1 1 0 1 0 2 0l1 0c38 0 84 35 98 75 12 34-10 52-28 65z m-162 239c-7 0-20 0-25-14-2-7-2-12 1-17 4-7 12-9 19-10 25-4 38-18 41-44 1-13 9-21 20-21 1 0 2 0 2 0 13 1 19 11 19 28 0 17-9 37-25 53-16 17-35 26-52 25z"/>
<glyph glyph-name="vimeo" unicode="&#58220;" d="M510 395c4 21 4 43-10 60-18 23-57 24-84 20-22-3-96-36-122-114 45 3 68-4 64-53-2-20-12-43-24-65-13-25-38-73-71-38-30 32-28 92-34 133-4 22-8 51-16 74-6 20-21 44-39 49-19 6-43-3-57-11-44-26-78-63-117-94 6-14 10-22 21-24 27-4 52 25 69-5 11-18 15-38 21-58 10-26 17-55 24-85 13-51 29-127 73-145 22-10 56 3 73 13 46 27 82 67 113 108 71 95 110 204 116 235z"/>
<glyph glyph-name="vk" unicode="&#58221;" d="M441 217c17-17 35-33 50-51 7-8 13-16 18-26 7-13 0-28-12-29l-74 0c-19-1-35 7-48 20-10 10-20 21-29 32-5 5-9 9-14 12-10 7-19 5-25-6-6-11-7-23-8-35 0-17-6-22-23-23-38-1-74 4-107 23-29 17-52 41-72 68-38 52-68 109-94 168-6 13-2 21 13 21 24 0 48 0 73 0 10 0 16-6 20-15 13-33 29-64 49-92 6-8 11-15 19-21 9-6 15-4 19 6 3 6 4 13 5 19 2 23 2 45-1 68-3 14-10 23-24 25-8 2-6 4-3 8 6 8 12 12 23 12l84 0c13-3 16-9 18-22l0-94c0-5 3-20 12-24 8-2 12 4 17 9 20 21 35 46 47 73 6 11 11 23 16 35 3 9 9 13 19 13l81 0c2 0 5 0 7 0 14-3 18-9 13-22-6-21-19-38-32-56-13-19-28-37-41-56-13-17-12-25 4-40z"/>
<glyph glyph-name="wikipedia" unicode="&#58222;" d="M499 438l-107 0c-7 0-13-6-13-13l0-17c0-7 6-13 13-13l27 0c0 0-82-215-82-215l-45 99c0 0 59 116 59 116l12 0c7 0 13 6 13 13l0 17c0 7-6 13-13 13l-80 0c-7 0-13-6-13-13l0-17c0-7 6-13 13-13l11 0c0-1-26-60-26-60 0 0-26 56-27 60l3 0c7 0 13 6 13 13l0 17c0 7-6 13-13 13l-85 0c-7 0-13-6-13-13l0-17c0-7 6-13 13-13l11 0c3-3 59-126 63-136l-37-80c-21 49-71 167-88 212 0 2-1 3-1 4l23 0c8 0 13 6 13 13l0 17c0 7-5 13-13 13l-117 0c-7 0-13-6-13-13l0-17c0-7 6-13 13-13l20 0c2-1 47-112 69-164 21-48 42-97 55-133 0 0 1 0 1 0 2-6 9-24 25-24 14 0 22 14 28 24 0 0 0 0 0 0 11 23 31 67 46 102 21-49 35-83 43-101 3-6 10-24 26-24l0 0c16 0 24 17 27 23 0 0 0 0 0 0 28 68 109 273 110 275 0 0 0 0 0 1 3 8 7 14 11 18 2 1 4 2 6 3l19 0c7 0 13 6 13 13l0 17c0 7-6 13-13 13z"/>
<glyph glyph-name="wordpress" unicode="&#58223;" d="M0 256c0-101 59-189 144-230l-122 334c-14-32-22-67-22-104z m429 13c0 32-12 53-21 71-13 21-25 38-25 60 0 23 17 45 43 45 1 0 2 0 3 0-46 42-106 67-173 67-89 0-168-46-214-115 6-1 12-1 17-1 26 0 68 4 68 4 14 0 15-20 1-22 0 0-13-1-29-2l93-277 56 168-39 109c-14 1-27 2-27 2-14 1-13 22 1 22 0 0 43-4 68-4 26 0 68 4 68 4 14 0 15-20 2-22 0 0-14-1-30-2l93-275 25 85c13 33 20 61 20 83z m-168-35l-77-224c23-6 47-10 72-10 30 0 58 5 85 15-1 1-1 2-2 3z m220 145c1-8 1-17 1-27 0-25-5-55-19-91l-78-226c76 44 127 127 127 221 0 45-11 86-31 123z"/>
<glyph glyph-name="xing" unicode="&#58234;" d="M471 507c-4 6-12 5-41 5-17 0-34 0-42 0-8-1-13-5-18-10l-14-25-61-109c-31-55-63-110-91-161l85-155 24-43c2-5 5-5 8-6 12-4 30-3 50-3 16 0 38 0 41 8 2 3 1 9-2 14 0 0-13 25-31 57 8-15 16-30 25-45l-95 174c2-5 4-9 6-13-2 5-4 9-6 13l72 127c25 44 50 88 74 132l0 1 0 0c0 0 0 0 0 0l17 29c2 5 1 7-1 10z m-292-122c-7 11-11 25-26 26-25 0-50 0-76 0-4-1-7-2-8-6-2-8 5-19 9-26 9-15 41-66 40-71 0-4-49-88-71-127-3-5-10-15-8-20 3-5 7-7 10-6 25 0 51 0 77 0 15 1 16 10 30 36 23 40 46 81 67 118-13 23-30 51-44 76z"/>
<glyph glyph-name="yahoo" unicode="&#58235;" d="M505 435l-202 0c-2 0-3-1-5-2-1-2-2-4-2-6l4-41c1-3 3-6 7-6l42-3-81-112-88 176 64 2c4 0 7 4 7 7l0 37c0 2 0 4-2 5-1 1-3 2-5 2l-237 0c-4 0-7-3-7-7l0-41c0-4 3-7 7-7l67-1 127-224 0-141-89-3c-4 0-7-3-7-7l0-38c0-2 0-4 2-5 1-1 3-2 5-2l277 0c2 0 3 1 5 2 1 2 2 4 2 5l-2 38c0 3-3 6-7 6l-76 4-11 137 136 165 56 2c3 0 6 2 7 5l13 43c0 1 0 2 0 3 0 4-3 7-7 7z"/>
<glyph glyph-name="yandex" unicode="&#58236;" d="M363 512l-72 0c-74 0-148-54-148-176 0-63 26-112 75-140l-89-162c-4-8-5-16-1-23 4-7 12-11 20-11l45 0c10 0 18 5 22 14l84 164 6 0 0-158c0-11 10-20 21-20l39 0c13 0 22 9 22 21l0 469c0 13-10 22-24 22z m-58-261l-10 0c-42 0-67 34-67 91 0 72 31 97 61 97l16 0z"/>
<glyph glyph-name="youtube" unicode="&#58237;" d="M492 405c-18 22-53 31-118 31l-236 0c-67 0-102-9-120-33-18-23-18-56-18-103l0-88c0-90 21-136 138-136l236 0c57 0 88 8 108 27 21 20 30 52 30 109l0 88c0 49-1 83-20 105z m-163-161l-108-56c-2-2-5-2-7-2-3 0-6 1-9 2-5 3-8 8-8 14l0 112c0 6 3 11 8 14 5 3 11 3 16 1l108-56c5-3 9-8 9-15 0-6-4-11-9-14z"/>
<glyph glyph-name="zerply" unicode="&#58238;" d="M436 126c-3 1-6 1-8-1-13-11-30-16-50-16-12 0-25 2-38 6-30 10-79 41-80 42-25 16-49 24-70 25 0 1 0 1 0 1 0 1 222 256 223 262 2 14 3 28 5 42 1 6-1 10-3 12-3 3-7 5-12 5-1 0-2 0-3 0 0 0 0 0-1 0-46-10-89-14-130-12-23 1-48 4-70 12-1 1-5 3-10 5 0 0 0 0 0 0-8 5-16 4-22-2-1 0-1 0-1-1-1 0-2-1-2-2-2-2-3-3-4-5-10-14-24-34-26-58-1-7-1-16 2-23 0 0 0 0 0 0 0-1 1-2 2-4 0 0 0 0 0 0 0 0 0 0 0-1 6-8 23-21 68-21 14 0 30 1 48 4-60-71-119-141-179-211 0 0 0 0 0-1-5-5-6-14-6-15 0-1 0-1 0-1l0-41c0 0 0-3 0-6l0 0c0-1 0-1 0-2 2-12 10-14 13-15 0 0 1 0 1 0l15 0c39 0 69-1 102-18 14-7 26-17 40-27 11-8 22-17 34-24 25-15 55-31 86-34 3-1 6-1 8-1 0 0 0 0 0 0 21 0 39 9 52 25 19 24 28 63 21 95-1 3-3 5-5 6z"/>
<glyph glyph-name="brazilian-real" unicode="&#58239;" d="M425 261l-20 6 0 182c40-8 71-43 71-86l31 0c0 60-45 109-102 117l0 32-31 0 0-32c-58-8-103-57-103-117 0-56 29-95 83-112l20-6 0-182c-41 8-72 43-72 86l-31 0c0-60 45-109 103-117l0-32 31 0 0 32c57 8 102 57 102 117 0 56-29 95-82 112z m-62 20c-41 13-61 39-61 82 0 43 31 78 72 86l0-172z m42-218l0 172 10-4c42-13 61-39 61-82 0-43-31-78-71-86z m-238 190c32 22 53 60 53 104 0 69-54 125-120 125l-95 0 0-455 31 0 0 204 85 0c49 0 89-42 89-94l0-110 31 0 0 110c0 52-31 97-74 116z m-131 9l0 189 64 0c49 0 89-42 89-94 0-52-40-95-89-95z"/>
<glyph glyph-name="canadian-dollar" unicode="&#58250;" d="M425 261l-20 6 0 182c40-8 71-43 71-86l31 0c0 60-45 109-102 117l0 32-31 0 0-32c-58-8-103-57-103-117 0-56 29-95 83-112l20-6 0-182c-41 8-72 43-72 86l-31 0c0-60 45-109 103-117l0-32 31 0 0 32c57 8 102 57 102 117 0 56-29 95-82 112z m-62 20c-41 13-61 39-61 82 0 43 31 78 72 86l0-172z m42-218l0 172 10-4c42-13 61-39 61-82 0-43-31-78-71-86z m-282 387c48 0 87-39 87-87l31 0c0 65-53 118-118 118-65 0-118-53-118-118l0-214c0-65 53-118 118-118 65 0 118 53 118 118l-31 0c0-48-39-87-87-87-48 0-87 39-87 87l0 214c0 48 39 87 87 87z"/>
<glyph glyph-name="colon" unicode="&#58251;" d="M255 60c-15 0-30 4-42 11l238 426-28 15-57-103c-6 15-15 28-26 39l27 49-28 15-25-45c-17 10-37 16-59 16-65 0-119-53-119-119l0-215-75-134 28-15 57 102c6-15 15-28 26-39l-27-48 28-15 24 44c17-10 37-15 58-15 66 0 119 53 119 119l-31 0c0-49-39-88-88-88z m-87 304c0 49 39 88 87 88 16 0 31-4 44-12l-131-235z m0-223l155 278c12-14 19-31 20-51l-155-276c-11 13-19 31-20 49z"/>
<glyph glyph-name="czech-koruna" unicode="&#58252;" d="M234 378c0-58-44-105-99-105l-94 0 0 239-34 0 0-512 34 0 0 239 94 0c55 0 99-47 99-105l0-134 35 0 0 134c0 53-28 98-69 122 41 24 69 70 69 122l0 134-35 0z m186 41l40 74-30 17-26-48-26 48-30-17 40-74z m-16-379c-37 0-67 30-67 67l0 176c0 37 30 67 67 67 37 0 67-30 67-67l34 0c0 56-45 102-101 102-56 0-101-46-101-102l0-176c0-56 45-101 101-101 56 0 101 45 101 101l-34 0c0-37-30-67-67-67z"/>
<glyph glyph-name="danish-krone" unicode="&#58253;" d="M270 378c0-58-44-105-99-105l-94 0 0 239-35 0 0-512 35 0 0 239 94 0c55 0 99-47 99-105l0-134 35 0 0 134c0 53-28 98-69 122 41 24 69 70 69 122l0 134-35 0z m103-47l0 48-34 0 0-379 34 0 0 243c0 53 43 96 97 96l0 35c-39 0-73-17-97-43z"/>
<glyph glyph-name="dollar" unicode="&#58254;" d="M292 261l-20 6 0 182c40-8 71-43 71-86l31 0c0 60-45 109-102 117l0 32-32 0 0-32c-57-8-102-57-102-117 0-56 29-95 83-112l19-6 0-182c-40 8-71 43-71 86l-31 0c0-60 45-109 102-117l0-32 32 0 0 32c57 8 102 57 102 117 0 56-29 95-82 112z m-62 20c-41 13-61 39-61 82 0 43 31 78 71 86l0-172z m42-218l0 172 10-4c41-13 61-39 61-82 0-43-31-78-71-86z"/>
<glyph glyph-name="dong" unicode="&#58255;" d="M368 471l0 41-35 0 0-41-47 0 0-35 47 0 0-96c-24 26-59 43-97 43-73 0-133-60-133-133l0-34c0-73 60-133 133-133 38 0 73 17 97 43l0-45 35 0 0 355 46 0 0 35z m-132-353c-54 0-98 44-98 98l0 34c0 54 44 98 98 98 54 0 97-44 97-98l0-34c0-54-43-98-97-98z m-138-83l276 0 0-35-276 0z"/>
<glyph glyph-name="dram" unicode="&#58266;" d="M409 242l0 35-41 0 0 102c0 74-59 133-132 133-73 0-133-59-133-133l35 0c0 54 44 98 98 98 53 0 97-44 97-98l0-102-97 0 0-35 97 0 0-46-97 0 0-35 97 0 0-161 35 0 0 161 41 0 0 35-41 0 0 46z"/>
<glyph glyph-name="euro" unicode="&#58267;" d="M277 35c-54 0-98 45-98 99l0 60 188 0 0 35-188 0 0 47 188 0 0 36-188 0 0 66c0 54 44 99 98 99 55 0 99-45 99-99l35 0c0 74-60 134-134 134-74 0-134-60-134-134l0-66-41 0 0-36 41 0 0-47-42 0 0-35 42 0 0-60c0-74 60-134 134-134 74 0 134 60 134 134l-35 0c0-54-44-99-99-99z"/>
<glyph glyph-name="forint" unicode="&#58268;" d="M102 472l233 0 0 34-267 0 0-506 34 0 0 227 187 0 0 35-187 0z m342-122l0 34-46 0 0 128-34 0 0-128-46 0 0-34 46 0 0-280c0-35 29-64 64-64l16 0 0 34-16 0c-16 0-30 14-30 30l0 280z"/>
<glyph glyph-name="hong-kong-dollar" unicode="&#58269;" d="M90 361l66 0 0-95 31 0 0 220-31 0 0-94-66 0 0 94-31 0 0-220 31 0z m66-173c0-20-15-36-34-36l-32 0 0 94-31 0 0-220 31 0 0 94 32 0c19 0 34-16 34-36l0-58 31 0 0 58c0 21-9 40-23 52 14 12 23 31 23 52l0 58-31 0z m215 73l-20 6 0 182c41-8 71-43 71-86l31 0c0 60-44 109-102 117l0 32-31 0 0-32c-58-8-102-57-102-117 0-56 28-95 82-112l20-6 0-182c-40 8-71 43-71 86l-31 0c0-60 44-109 102-117l0-32 31 0 0 32c58 8 102 57 102 117 0 56-28 95-82 112z m-62 20c-41 13-60 39-60 82 0 43 31 78 71 86l0-172z m42-218l0 172 11-4c41-13 60-39 60-82 0-43-30-78-71-86z"/>
<glyph glyph-name="indonesian-rupiah" unicode="&#58270;" d="M165 254c33 23 54 62 54 106 0 71-54 128-122 128l-97 0 0-464 32 0 0 208 86 0c50 0 91-43 91-96l0-112 32 0 0 112c0 53-32 99-76 118z m-133 10l0 193 65 0c50 0 91-44 91-97 0-53-41-96-91-96z m360 154c-35 0-67-15-89-39l0 41-31 0 0-396 31 0 0 148c22-24 54-39 89-39 66 0 120 54 120 120l0 45c0 66-54 120-120 120z m88-165c0-48-39-88-88-88-49 0-89 40-89 88l0 45c0 48 40 88 89 88 49 0 88-40 88-88z"/>
<glyph glyph-name="lev" unicode="&#58271;" d="M42 90c0-15-12-27-27-27l-15 0 0-32 15 0c32 0 58 26 58 59l0 365 139 0 0-429 31 0 0 460-201 0z m399 175c30 22 50 58 50 99 0 67-52 122-116 122l-101 0 0-455 122 0c64 0 116 55 116 122 0 50-29 93-71 112z m-136 190l70 0c47 0 85-41 85-91 0-49-38-90-85-90l0 0-70 0z m91-392l-91 0 0 180 91 0c47 0 85-41 85-90 0-50-38-90-85-90z"/>
<glyph glyph-name="malaysian-ringgit" unicode="&#58122;" d="M165 254c33 23 54 62 54 106 0 71-54 128-122 128l-97 0 0-464 32 0 0 208 86 0c50 0 91-43 91-96l0-112 32 0 0 112c0 53-32 99-76 118z m-133 10l0 193 65 0c50 0 91-44 91-97 0-53-41-96-91-96z m443 224l-83-210-83 210-38 0 0-464 32 0 0 392 73-184 32 0 72 184 0-392 32 0 0 464z"/>
<glyph glyph-name="new-shekel" unicode="&#58123;" d="M365 512l0-472-134 0 0 392-34 0 0-426 203 0 0 506z m-84-432l34 0 0 426-203 0 0-506 35 0 0 472 134 0z"/>
<glyph glyph-name="new-taiwan-dollar" unicode="&#58124;" d="M478 394l0 35-444 0 0-35 125 0 0-260c0-54-44-99-98-99l-27 0 0-35 27 0c73 0 133 60 133 134l0 260 123 0 0-325c0-38 31-69 69-69l17 0 0 35-17 0c-19 0-34 15-34 34l0 325z m-444 118l444 0 0-35-444 0z"/>
<glyph glyph-name="philippine-peso" unicode="&#58125;" d="M429 429l-52 0c-22 49-69 83-123 83l-131 0 0-83-40 0 0-35 40 0 0-46-40 0 0-35 40 0 0-313 35 0 0 230 96 0c54 0 101 34 123 83l52 0 0 35-42 0c1 7 2 15 2 23 0 8-1 16-2 23l42 0 0 35z m-271 48l96 0c35 0 65-19 83-48l-179 0z m96-212l-96 0 0 48 179 0c-18-29-48-48-83-48z m100 106c0-8-1-16-3-23l-193 0 0 46 193 0c2-7 3-15 3-23z"/>
<glyph glyph-name="pound-sterling" unicode="&#58126;" d="M178 239l164 0 0 35-164 0 0 104c0 54 44 99 99 99 54 0 99-45 99-99l35 0c0 74-60 134-134 134-74 0-134-60-134-134l0-104-42 0 0-35 42 0 0-204-42 0 0-35 309 0 0 35-232 0z"/>
<glyph glyph-name="renminbi" unicode="&#58127;" d="M411 495l-30 17-124-223-126 223-30-17 126-225-90 0 0-34 103 0 0-47-103 0 0-34 103 0 0-155 34 0 0 155 101 0 0 34-101 0 0 47 101 0 0 34-88 0z"/>
<glyph glyph-name="ruble" unicode="&#58394;" d="M271 230c74 0 134 63 134 141 0 78-60 141-134 141l-131 0 0-329-33 0 0-35 33 0 0-148 35 0 0 148 119 0 0 35-119 0 0 47z m-96 247l96 0c55 0 100-48 100-106 0-59-45-106-100-106l-96 0z"/>
<glyph glyph-name="rupee" unicode="&#58395;" d="M418 512l-206 0c-2 0-3 0-5 0l-107 0-6 0c0 0 0-18 0-18l0-17c0 0 6 0 6 0l111 0c33-1 62-19 79-47l-196 0 0-34 210 0c2-8 3-17 3-25 0-59-45-106-100-106l-113 0 0-35 136 0c56 0 100-48 100-106l0-124 35 0 0 124c0 58-34 109-83 130 36 25 60 68 60 117 0 8-1 17-2 25l78 0 0 34-89 0c-8 18-19 34-33 47l122 0z"/>
<glyph glyph-name="rupee-alt" unicode="&#58396;" d="M437 206l-52 16c-32 11-47 31-47 65 0 37 30 68 68 68 37 0 67-31 67-68l35 0c0 57-46 103-102 103-57 0-103-46-103-103 0-49 25-83 72-98l51-16c32-10 47-31 47-65 0-37-30-67-67-67-38 0-68 30-68 67l-35 0c0-56 46-102 103-102 56 0 102 46 102 102 0 50-24 83-71 98z m-251 48c36 25 60 68 60 117 0 78-61 141-135 141l-107 0 0-512 35 0 0 230 95 0c55 0 100-48 100-106l0-124 35 0 0 124c0 58-34 109-83 130z m-147 11l0 212 72 0c55 0 100-48 100-106 0-59-45-106-100-106z"/>
<glyph glyph-name="singapore-dollar" unicode="&#58397;" d="M425 261l-20 6 0 182c40-8 71-43 71-86l31 0c0 60-45 109-102 117l0 32-31 0 0-32c-58-8-103-57-103-117 0-56 29-95 83-112l20-6 0-182c-41 8-72 43-72 86l-31 0c0-60 45-109 103-117l0-32 31 0 0 32c57 8 102 57 102 117 0 56-29 95-82 112z m-62 20c-41 13-61 39-61 82 0 43 31 78 72 86l0-172z m42-218l0 172 10-4c42-13 61-39 61-82 0-43-31-78-71-86z m-282 387c48 0 87-39 87-87l31 0c0 65-53 118-118 118-65 0-118-53-118-118 0-56 29-95 82-112l62-20c41-13 61-39 61-82 0-48-39-87-87-87-48 0-87 39-87 87l-31 0c0-65 53-118 118-118 65 0 118 53 118 118 0 56-29 95-83 112l-61 20c-42 13-61 39-61 82 0 48 39 87 87 87z"/>
<glyph glyph-name="south-african-rand" unicode="&#58398;" d="M306 254c36 25 59 68 59 117 0 78-60 141-135 141l-107 0 0-512 35 0 0 230 96 0c55 0 100-48 100-106l0-124 35 0 0 124c0 58-35 109-83 130z m-76 11l-72 0 0 212 72 0c56 0 100-48 100-106 0-59-44-106-100-106z"/>
<glyph glyph-name="south-korean-won" unicode="&#58399;" d="M429 282l0 35-40 0 0 195-35 0 0-195-196 0 0 195-35 0 0-195-40 0 0-35 40 0 0-46-40 0 0-35 40 0 0-201 41 0 80 201 24 0 80-201 41 0 0 201 40 0 0 35-40 0 0 46z m-271 0l80 0-18-46-62 0z m0-202l0 121 48 0z m196 0l-48 121 48 0z m0 156l-62 0-19 46 81 0z"/>
<glyph glyph-name="swiss-franc" unicode="&#58410;" d="M481 477l0 35-271 0 0-512 35 0 0 241 189 0 0 35-189 0 0 201z m-340-336l-75 0 0 106-35 0 0-247 35 0 0 106 75 0 0-106 35 0 0 247-35 0z m-38 124c40 0 72 32 72 72l-34 0c0-21-17-37-38-37-20 0-37 16-37 37l0 103c0 20 17 37 37 37 21 0 38-17 38-37l34 0c0 40-32 72-72 72-39 0-72-32-72-72l0-103c0-40 33-72 72-72z"/>
<glyph glyph-name="thai-baht" unicode="&#58411;" d="M304 262c30 22 49 58 49 99 0 62-45 113-102 120l0 31-31 0 0-31-82 0 0-450 82 0 0-31 31 0 0 31 8 0c63 0 115 54 115 120 0 50-29 93-70 111z m18 99c0-45-31-82-71-88l0 176c40-6 71-43 71-88z m-153 89l51 0 0-179-51 0z m0-388l0 178 51 0 0-178z m90 0l-8 0 0 178 8 0c46 0 84-40 84-89 0-49-38-89-84-89z"/>
<glyph glyph-name="tugrik" unicode="&#58412;" d="M388 270l-115-42 0 51 127 46-12 33-115-42 0 161 122 0 0 35-278 0 0-35 122 0 0-173-127-47 12-32 115 41 0-51-127-46 12-33 115 42 0-178 34 0 0 191 127 46z"/>
<glyph glyph-name="turkish-lira" unicode="&#58413;" d="M401 265c0-121-94-220-213-229l0 246 177 65-12 32-165-60 0 52 177 64-12 33-165-60 0 104-35 0 0-117-77-28 12-33 65 24 0-51-77-28 12-33 65 24 0-270 18 0c71 0 137 28 187 77 50 50 78 117 78 188z"/>
<glyph glyph-name="zloty" unicode="&#58414;" d="M428 212l-12 33-42-15 0 282-36 0 0-295-55-20 13-34 42 16 0-179 36 0 0 192z m-126 156l0 35-218 0 0-36 177 0-171-326 0-35 218 0 0 36-176 0z"/>
<glyph glyph-name="aircraft" unicode="&#58415;" d="M179 199c-99 0-179-80-179-178l0-17 357 0 0 17c0 98-80 178-178 178z m50-41l0-121-111 0 0 116c18 9 39 13 61 13 17 0 34-3 50-8z m-144-26l0-95-51 0c4 38 23 72 51 95z m177-95l0 104c33-24 57-61 62-104z m-206 225c13 0 26 6 34 15 20-29 52-47 89-47 36 0 69 18 88 47 9-9 21-15 34-15 27 0 49 22 49 49l0 29 0 0c-2 93-78 168-171 168-94 0-170-75-172-168l0 0 0-29c0-27 22-49 49-49z m123 0c-41 0-74 33-74 74 0 41 33 74 74 74 40 0 73-33 73-74 0-41-33-74-73-74z m139 49c0-9-8-16-17-16-9 0-16 7-16 16l0 53 30 0c2-9 3-18 3-28z m-139 164c55 0 102-32 125-78l-38 0c-19 27-51 45-87 45-37 0-69-18-88-45l-38 0c23 46 71 78 126 78z m-137-111l30 0 0-53c0-9-7-16-16-16-9 0-16 7-16 16l0 25c0 10 1 19 2 28z m470-232l-21 0-9 178-83 0-8-178-21 0 0-33 54 0 0-95 33 0 0 95 55 0z m-82 146l21 0 7-146-34 0z"/>
<glyph glyph-name="airplane-front" unicode="&#58426;" d="M512 225l-168 0c0 1 0 3 0 5 0 14-2 28-5 41l65 0 0 32-78 0c-2 3-4 6-6 8-13 19-30 31-48 35l0 54-32 0 0-54c-18-4-35-16-48-35-2-2-4-5-6-8l-78 0 0-32 65 0c-3-13-5-27-5-41 0-2 0-4 0-5l-168 0 0-32 64 0c2-12 13-21 26-21 13 0 23 9 26 21l56 0c4-17 11-32 20-45 17-23 39-36 64-36 25 0 47 13 64 36 9 13 16 28 20 45l56 0c3-12 13-21 26-21 13 0 24 9 26 21l64 0z m-256-82c-31 0-57 40-57 87 0 47 26 86 57 86 31 0 57-39 57-86 0-47-26-87-57-87z m-21 121l42 0 0-32-42 0z"/>
<glyph glyph-name="airplane-side" unicode="&#58427;" d="M422 309l-47 0-103 186-94 0 55-186-134 0-15 46-84 0 0-152 233 0-55-186 94 0 103 186 137 0 0 16c0 49-40 90-90 90z m-202 154l33 0 86-154-73 0z m136-228l-103-186-33 0 55 186-243 0 0 88 29 0 15-46 346 0c27 0 49-18 56-42z"/>
<glyph glyph-name="arrival" unicode="&#58428;" d="M132 176l96-55 118 70 119-68 8 14c25 43 10 98-33 123l-280 161 10 48-73 42-76-132 202-116z m-67 215l44 76 25-14-9-48 299-173c23-13 34-40 27-65l-105 61-118-71-44 25 91 87z m-65-358l512 0 0-32-512 0z"/>
<glyph glyph-name="backpack" unicode="&#58429;" d="M475 196c0 32-29 58-64 58l-6 0 0 35c0 64-40 118-96 140l0 30c0 29-24 53-53 53-29 0-53-24-53-53l0-30c-56-22-96-76-96-140l0-35-6 0c-35 0-64-26-64-58l0-147 70 0 0-49 298 0 0 49 70 0z m-64 26c18 0 32-11 32-26l0-5-38 0 0 31z m-176 237c0 12 9 21 21 21 12 0 21-9 21-21l0-22c-7 1-14 1-21 1-7 0-14 0-21-1z m21-52c59 0 108-45 116-102l-52 0 0 27-31 0 0-27-66 0 0 27-31 0 0-27-52 0c8 57 57 102 116 102z m-155-185l6 0 0-31-38 0 0 5c0 15 14 26 32 26z m-32-141l0 78 38 0 0-78z m70-49l0 242 53 0 0-120 31 0 0 120 66 0 0-120 31 0 0 120 53 0 0-242z m266 49l0 78 38 0 0-78z"/>
<glyph glyph-name="captain" unicode="&#58430;" d="M256 195c-99 0-179-80-179-179l0-16 358 0 0 16c0 99-80 179-179 179z m16-162l0 72-32 0 0-72-129 0c7 67 61 121 129 128l0-34 32 0 0 34c68-7 122-61 129-128z m-112 346c-7-15-10-31-10-47 0-59 47-106 106-106 59 0 106 47 106 106 0 22-7 44-19 62l39 75-126 43-126-43 39-75c-3-5-6-10-9-15z m96-121c-41 0-74 33-74 74 0 10 2 19 6 28 16-19 41-31 68-31 27 0 52 12 68 31 4-9 6-18 6-28 0-41-33-74-74-74z m-45 125l90 0c-11-14-27-22-45-22-18 0-34 8-45 22z m45 94l79-26-18-36-122 0-18 36z"/>
<glyph glyph-name="carrier" unicode="&#58431;" d="M347 96c-26 0-48-22-48-48 0-27 22-48 48-48 27 0 48 21 48 48 0 26-21 48-48 48z m0-64c-9 0-16 7-16 16 0 9 7 16 16 16 9 0 17-7 17-16 0-9-8-16-17-16z m-152 64c-26 0-48-22-48-48 0-27 22-48 48-48 26 0 48 21 48 48 0 26-22 48-48 48z m0-64c-9 0-16 7-16 16 0 9 7 16 16 16 9 0 16-7 16-16 0-9-7-16-16-16z m166 127l0 263-74 0 0 57-32 0 0-57-73 0 0-263-42 0 0 353-68 0 0-32 36 0 0-353 332 0 0 32z m-148 232l116 0 0-232-116 0z"/>
<glyph glyph-name="cart" unicode="&#58442;" d="M464 182l0 117-118 0-44 93 35 17-13 28-96-45 14-28 31 15 47-100 0-143-67 0 0 163-173 0 0 157-32 0 0-274c-28-7-48-32-48-62 0-35 29-64 64-64 30 0 55 20 62 48l260 0c7-28 32-48 62-48 35 0 64 29 64 64 0 30-20 55-48 62z m-243 85l0-32-141 0 0 32z m-157-179c-18 0-32 14-32 32 0 18 14 32 32 32 18 0 32-14 32-32 0-18-14-32-32-32z m16 94l0 21 141 0 0-67-95 0c-6 22-24 40-46 46z m306-46l-34 0 0 131 80 0 0-85c-22-6-40-24-46-46z m62-48c-18 0-32 14-32 32 0 18 14 32 32 32 18 0 32-14 32-32 0-18-14-32-32-32z"/>
<glyph glyph-name="cctv" unicode="&#58443;" d="M512 481l-512 0 0-202 240 0 0-149-145 0 0 68-95 0 0-167 95 0 0 67 177 0 0 181 55 0 26 21 138 0 0 108 21 17z m-449-418l-31 0 0 103 31 0z m253 248l-284 0 0 138 448 0 0-9z m143 21l-65 0 65 51z"/>
<glyph glyph-name="claims" unicode="&#58444;" d="M80 196c-9 0-16-8-16-17 0-9 7-16 16-16 9 0 17 7 17 16 0 9-8 17-17 17z m59 0c-9 0-17-8-17-17 0-9 8-16 17-16 9 0 16 7 16 16 0 9-7 17-16 17z m58 0c-9 0-16-8-16-17 0-9 7-16 16-16 9 0 17 7 17 16 0 9-8 17-17 17z m59 0c-9 0-16-8-16-17 0-9 7-16 16-16 9 0 16 7 16 16 0 9-7 17-16 17z m59 0c-9 0-17-8-17-17 0-9 8-16 17-16 9 0 16 7 16 16 0 9-7 17-16 17z m58 0c-9 0-16-8-16-17 0-9 7-16 16-16 9 0 17 7 17 16 0 9-8 17-17 17z m59 0c-9 0-17-8-17-17 0-9 8-16 17-16 9 0 16 7 16 16 0 9-7 17-16 17z m80-17c0 44-36 80-80 80l-35 0 0 185-93 0 0 52-96 0 0-52-93 0 0-185-35 0c-44 0-80-36-80-80 0-38 28-71 64-78l0-85 32 0 0 83 320 0 0-83 32 0 0 85c36 7 64 40 64 78z m-273 286l34 0 0-21-34 0z m-93-53l220 0 0-153-220 0z m286-281l-352 0c-27 0-48 22-48 48 0 27 21 49 48 49l352 0c27 0 48-22 48-49 0-26-21-48-48-48z"/>
<glyph glyph-name="control-tower" unicode="&#58445;" d="M476 288l-101 0 25 122-128 0 0 102-32 0 0-102-128 0 25-122-101 0 32-153 128 0 0-135 32 0 0 135 56 0 0-135 32 0 0 135 128 0z m-204-31l67 0-10-91-57 0z m-32-91l-57 0-10 91 67 0z m-89 213l210 0-18-91-174 0z m-76-122l67 0 9-91-58 0z m344-91l-58 0 9 91 67 0z"/>
<glyph glyph-name="departures" unicode="&#58446;" d="M274 313l29-120 94 54-2 136 117 67-8 14c-16 27-45 44-77 44-15 0-30-4-44-12l-276-159-36 32-71-41 75-130z m-207 18l37-32 295 170c8 5 18 8 28 8 16 0 30-6 40-16l-103-60 2-136-43-25-29 121-208-120-43 76z m-63-296l504 0 0-31-504 0z"/>
<glyph glyph-name="elevator" unicode="&#58447;" d="M63 449l0-449 386 0 0 449z m32-32l145 0 0-385-145 0z m322-385l-145 0 0 385 145 0z m-253 480l184 0 0-32-184 0z"/>
<glyph glyph-name="escalator" unicode="&#58650;" d="M339 415l-105-105 0 74-143 0 0-208-91 0 0-176 173 0 239 239 100 0 0 176z m-137-62l0-75-80-80 0 155z m278-82l-81 0-239-239-128 0 0 112 81 0 239 239 128 0z m-318 134c30 0 54 24 54 54 0 29-24 53-54 53-29 0-53-24-53-53 0-30 24-54 53-54z m0 75c12 0 22-9 22-21 0-12-10-22-22-22-12 0-21 10-21 22 0 12 9 21 21 21z"/>
<glyph glyph-name="escalator-alt" unicode="&#57344;" d="M234 206l0 148-143 0 0-148-91 0 0-175 512 0 0 175z m-112 116l80 0 0-116-80 0z m358-260l-448 0 0 113 448 0z m-146 233l22-23 65 66-65 65-23-22 28-27-90 0 0-32 90 0z m-172 80c30 0 54 24 54 53 0 29-24 53-54 53-29 0-53-24-53-53 0-29 24-53 53-53z m0 75c12 0 22-10 22-22 0-12-10-22-22-22-12 0-21 10-21 22 0 12 9 22 21 22z"/>
<glyph glyph-name="id-card" unicode="&#57345;" d="M161 262c31 0 57 25 57 56 0 31-26 57-57 57-31 0-57-26-57-57 0-31 26-56 57-56z m0 81c14 0 25-11 25-25 0-13-11-25-25-25-14 0-25 12-25 25 0 14 11 25 25 25z m90-190c0 49-41 90-90 90-49 0-90-41-90-90l0-16 180 0z m-146 16c7 24 29 42 56 42 26 0 49-18 56-42z m-105 269l0-364 512 0 0 364z m480-333l-448 0 0 302 448 0z m-203 270l177 0 0-32-177 0z m11-206l166 0 0-32-166 0z m-32 143l198 0 0-32-198 0z"/>
<glyph glyph-name="inspection" unicode="&#57346;" d="M512 23l-76 76c13 18 21 41 21 65 0 27-10 52-27 71l0 218-149 0 0 58-131 0 0-58-150 0 0-323 246 0c15-43 55-74 103-74 24 0 46 7 64 21l76-76z m-330 456l67 0 0-26-67 0z m59-315c0-1 0-1 0-2l-209 0 0 259 366 0 0-161c-14 8-31 12-49 12-60 0-108-49-108-108z m108-76c-42 0-76 34-76 76 0 42 34 76 76 76 42 0 76-34 76-76 0-42-34-76-76-76z"/>
<glyph glyph-name="liquids" unicode="&#57347;" d="M437 437c-48 48-113 75-181 75-68 0-133-27-181-75-48-48-75-113-75-181 0-68 27-133 75-181 48-48 113-75 181-75 68 0 133 27 181 75 48 48 75 113 75 181 0 68-27 133-75 181z m-405-181c0 56 20 108 55 147l93-93-14-19c-15-20-22-43-22-67 0-62 50-113 112-113 33 0 64 15 84 38l63-62c-39-35-91-55-147-55-124 0-224 100-224 224z m301-55l-111 112 34 45 65-86c10-14 16-31 16-48 0-8-2-16-4-23z m-15-29c-15-18-37-29-62-29-44 0-81 36-81 81 0 17 6 34 16 48l12 15z m107-63l-67 68c7 14 10 30 10 47 0 24-7 47-22 67l-90 120-57-76-90 90c39 35 91 55 147 55 124 0 224-100 224-224 0-56-20-108-55-147z"/>
<glyph glyph-name="lockers" unicode="&#57348;" d="M106 209l39 0 0-47 31 0 0 47 108 0c8-35 39-62 76-62 43 0 78 35 78 78 0 43-35 78-78 78-37 0-68-27-76-62l-210 0 0-79 32 0z m254 62c26 0 46-20 46-46 0-25-20-46-46-46-25 0-46 21-46 46 0 26 21 46 46 46z m-28 145l0 63-152 0 0-63-180 0 0-383 512 0 0 383z m-120 32l88 0 0-32-88 0z m268-384l-448 0 0 320 448 0z"/>
<glyph glyph-name="luggage" unicode="&#57349;" d="M332 416l0 63-152 0 0-63-180 0 0-383 512 0 0 383z m58-32l0-320-268 0 0 320z m-178 64l88 0 0-32-88 0z m-180-64l58 0 0-320-58 0z m448-320l-58 0 0 320 58 0z"/>
<glyph glyph-name="luggage-alt" unicode="&#57350;" d="M396 358l-58 0 0 154-164 0 0-154-58 0 0-316 22 0c0-2 0-3 0-5 0-20 16-37 37-37 20 0 37 17 37 37 0 2 0 3-1 5l90 0c-1-2-1-3-1-5 0-20 17-37 37-37 21 0 37 17 37 37 0 2 0 3 0 5l22 0z m-190 122l100 0 0-122-100 0z m158-154l0-42-216 0 0 42z m-216-73l216 0 0-179-216 0z"/>
<glyph glyph-name="metal-detector" unicode="&#57351;" d="M432 300l22-22-64-64-22 23z m0-229l-64 63 22 23 64-64z m-38 130l90 0 0-31-90 0z m-366-201l32 0 0 355 242 0 0-355 31 0 0 512-305 0z m274 481l0-94-242 0 0 94z m-216-32l190 0 0-31-190 0z"/>
<glyph glyph-name="no-smoking" unicode="&#57352;" d="M437 437c-48 48-113 75-181 75-68 0-133-27-181-75-48-48-75-113-75-181 0-68 27-133 75-181 48-48 113-75 181-75 68 0 133 27 181 75 48 48 75 113 75 181 0 68-27 133-75 181z m-405-181c0 56 20 108 55 147l99-99-85 0 0-96 180 0 122-121c-39-35-91-55-147-55-124 0-224 100-224 224z m348 16l0-32-22 0 0 32z m-53-32l-33 0-31 32 64 0z m-78 0l-117 0 0 32 86 0z m176-131l-99 99 85 0 0 96-180 0-122 121c39 35 91 55 147 55 124 0 224-100 224-224 0-56-20-108-55-147z m-98 290l-113 0 0-32 113 0c14 0 26-12 26-27l0-10 32 0 0 10c0 32-26 59-58 59z"/>
<glyph glyph-name="passport" unicode="&#57353;" d="M45 512l0-512 422 0 0 512z m390-480l-358 0 0 448 358 0z m-179 133c75 0 137 61 137 136 0 76-62 137-137 137-75 0-137-61-137-137 0-75 62-136 137-136z m-104 121l48 0c1-28 6-54 13-75 0-2 1-4 2-6-33 14-57 44-63 81z m104 120c2-1 9-9 15-29 5-16 8-37 9-60l-48 0c1 23 4 44 9 60 6 20 13 28 15 29z m24-120c-1-23-4-44-9-60-6-20-13-28-15-29-2 1-9 9-15 29-5 16-8 37-9 60z m17-81c1 2 2 4 2 6 7 21 12 47 13 75l48 0c-6-37-30-67-63-81z m63 112l-48 0c-1 28-6 54-13 75 0 2-1 4-2 6 33-14 57-44 63-81z m-145 81c-1-2-2-4-2-6-7-21-12-47-13-75l-48 0c6 37 30 67 63 81z m-101-275l284 0 0-32-284 0z"/>
<glyph glyph-name="plane-ticket" unicode="&#57354;" d="M274 331l-28-16 24-43-77 0 0 18-32 0 0-50 109 0-24-43 28-16 33 59 49 0 0 32-49 0z m222-18l16 0 0 119-512 0 0-119 16 0c31 0 57-26 57-57 0-31-26-57-57-57l-16 0 0-119 512 0 0 119-16 0c-31 0-57 26-57 57 0 31 26 57 57 57z m-16-144l0-58-448 0 0 58c41 7 72 44 72 87 0 43-31 80-72 87l0 58 448 0 0-58c-41-7-72-44-72-87 0-43 31-80 72-87z"/>
<glyph glyph-name="schedules" unicode="&#57355;" d="M272 296l171 0 0-32-171 0z m-203 0l171 0 0-32-171 0z m203-64l171 0 0-31-171 0z m-203 0l171 0 0-31-171 0z m203-63l171 0 0-32-171 0z m-203 0l171 0 0-32-171 0z m203-63l171 0 0-32-171 0z m-203 0l171 0 0-32-171 0z m369 263l0 143-32 0 0-143-300 0 0 143-32 0 0-143-74 0 0-369 512 0 0 369z m42-337l-448 0 0 306 448 0z"/>
<glyph glyph-name="seat-belt" unicode="&#57356;" d="M69 347l-69 0 0-32 69 0 0-118-69 0 0-32 69 0 0-21 190 0 0 223-190 0z m32-12l127 0 0-159-127 0z m411-20l0 32-69 0 0 21-92 0-10-39-46 0 0-137 45 0 11-48 92 0 0 21 69 0 0 32-69 0 0 118z m-101-139l-35 0-10 48-39 0 0 74 38 0 10 38 36 0z"/>
<glyph glyph-name="signals" unicode="&#57357;" d="M213 512l-115 0-13-291-12 0 0-74 24-21 0-126 118 0 0 126 23 21 0 74-11 0z m-84-32l54 0 12-259-79 0z m77-319l-23-21 0-108-55 0 0 108-23 21 0 28 101 0z m233 204l-24 21 0 126-118 0 0-126-23-21 0-74 11 0 14-291 115 0 13 291 12 0z m-133-14l23 21 0 108 55 0 0-108 23-21 0-28-101 0z m77-319l-54 0-12 259 79 0z"/>
<glyph glyph-name="toilets" unicode="&#57358;" d="M324 384l0-209 20 0 0-175 146 0 0 175 20 0 0 209z m154-178l-20 0 0-174-83 0 0 174-19 0 0 147 122 0z m-61 199c29 0 53 24 53 54 0 29-24 53-53 53-29 0-53-24-53-53 0-30 24-54 53-54z m0 75c12 0 22-9 22-21 0-12-10-22-22-22-12 0-22 10-22 22 0 12 10 21 22 21z m-319-75c30 0 53 24 53 54 0 29-23 53-53 53-29 0-53-24-53-53 0-30 24-54 53-54z m0 75c12 0 22-9 22-21 0-12-10-22-22-22-12 0-21 10-21 22 0 12 9 21 21 21z m78-96l-156 0 13-79-31-184 43 0 0-121 106 0 0 121 43 0-31 184z m-57-232l0-120-42 0 0 120-37 0 26 153-8 47 81 0-8-47 26-153z m123 360l32 0 0-512-32 0z"/>
<glyph glyph-name="waiting-room" unicode="&#57359;" d="M256 310c56 0 101 46 101 101 0 56-45 101-101 101-56 0-101-45-101-101 0-55 45-101 101-101z m0 171c38 0 69-32 69-70 0-38-31-69-69-69-38 0-69 31-69 69 0 38 31 70 69 70z m16-26l-32 0 0-28-27 0 0-31 59 0z m206-240l0-63-32 0 0 63c0 48-39 87-87 87-48 0-87-39-87-87l0-63-32 0 0 63c0 48-39 87-87 87-48 0-87-39-87-87l0-63-32 0 0 63-31 0 0-215 31 0 0 121 32 0 0-64 174 0 0 64 32 0 0-64 174 0 0 64 32 0 0-121 31 0 0 215z m-380 0c0 30 25 55 55 55 31 0 55-25 55-55l0-63-110 0z m110-126l-110 0 0 32 110 0z m96 126c0 30 24 55 55 55 30 0 55-25 55-55l0-63-110 0z m110-126l-110 0 0 32 110 0z"/>
<glyph glyph-name="american-football" unicode="&#57360;" d="M274 347l25-25-41-42-26 26-22-23 25-25-45-45-25 25-23-22 74-74 22 23-25 25 45 45 25-25 23 22-26 26 42 41 25-25 23 22-74 74z m229 144l-2 10-10 2c-29 6-58 9-87 9-52 0-104-10-152-30-50-20-95-50-134-88-48-49-84-110-103-176-18-64-20-132-6-197l2-10 10-2c29-6 58-9 87-9 52 0 104 10 152 30 50 20 95 50 134 88 48 49 84 110 103 176 18 64 20 132 6 197z m-29-17c7-38 8-77 4-114l-118 118c14 1 29 2 44 2 23 0 47-2 70-6z m-366-442c-23 0-47 2-70 6-7 38-8 77-4 114l118-118c-14-1-29-2-44-2z m263 109c-50-51-113-85-181-100l-149 149c15 68 49 131 100 181 50 51 113 85 181 100l149-150c-15-67-49-130-100-180z"/>
<glyph glyph-name="american-football-alt" unicode="&#57361;" d="M509 271l0 31-56 0c-3 55-26 105-65 144-43 43-99 66-159 66-61 0-117-23-160-66-42-43-66-99-66-159 0-35 8-70 24-101l-1 0 77-134c19-32 53-52 90-52l311 0 0 151-32 0 0-32-178 0c-4 30-23 57-50 73l0 79z m-37-239l-205 0c14 15 24 34 27 55l178 0z m-250 136c25-12 42-37 42-65 0-39-32-71-71-71-26 0-50 13-62 36l-64 111c0 0-7 12-7 12-16 29-25 62-25 96 0 106 87 193 194 193 101 0 185-78 193-178l-209 0 0-130z m-29-43c-15 0-27-11-27-26 0-15 12-26 27-26 14 0 26 11 26 26 0 15-12 26-26 26z"/>
<glyph glyph-name="archery" unicode="&#57362;" d="M412 512l0-33 43 0-74-74c-42 37-96 57-153 57-62 0-121-24-165-69l-12-11 154-154-56-55-76 0 0-34 43 0-39-39-77 0 0-33 67 0 0-67 33 0 0 77 39 39 0-43 34 0 0 76 55 56 154-154 11 12c45 44 69 103 69 165 0 57-20 111-57 153l74 74 0-43 33 0 0 100z m-313-131c36 31 81 48 129 48 48 0 93-17 130-48l-130-129z m282-282l-129 129 129 130c63-75 63-185 0-259z"/>
<glyph glyph-name="badminton" unicode="&#57363;" d="M489 315c-14 15-34 23-54 23-4 0-7 0-11-1 3 23-4 48-22 65-14 15-34 23-54 23-4 0-7 0-11-1 3 23-4 48-22 65-30 31-79 31-109 0l-2-1-141-276-32-32c-20-20-31-46-31-75 0-28 11-54 31-74 20-20 46-31 74-31 29 0 55 11 75 31l32 32 276 141 1 2c31 30 31 79 0 109z m-109 65c18-18 18-46 1-64l-10-8-63 63 8 10c9 8 20 12 32 12 12 0 23-4 32-13z m-171-81l-36-45-35 35 27 53z m-28 73l27 54 57-58-36-45z m51-96l44-44-45-37-36 36z m-79-47l-36-45-22 21 28 54z m22-23l31-31-45-36-22 22z m54-53l30-30-54-28-21 22z m25 20l45 36 43-44-53-27z m69 56l45 36 58-57-54-27z m-22 23l-49 49 36 45 58-58z m-8 215c18-18 18-47 0-65 0 0-1 0-1 0l-7-9-62 62 7 14c18 16 46 15 63-2z m-135-414c-14-14-33-21-53-21-19 0-38 7-52 21-14 14-21 33-21 52 0 20 7 39 21 53l23 22 104-104z m311 177l-14-7-62 62 8 7 1 0 0 1c9 9 20 13 33 13 12 0 23-4 32-13 17-17 18-45 2-63z"/>
<glyph glyph-name="baseball" unicode="&#57364;" d="M437 437c-48 48-113 75-181 75-68 0-133-27-181-75-48-48-75-113-75-181 0-68 27-133 75-181 48-48 113-75 181-75 68 0 133 27 181 75 48 48 75 113 75 181 0 68-27 133-75 181z m-405-181c0 56 20 107 54 147 12-14 22-29 30-44l-17-8 12-29 17 7c7-18 11-38 12-57l-18 0 0-32 18 0c-1-19-5-39-12-57l-17 7-12-29 17-8c-8-15-18-30-30-44-34 40-54 91-54 147z m77-169c14 16 26 35 36 54l18-8 12 29-17 8c8 22 12 46 14 70l19 0 0 32-19 0c-2 24-6 48-14 70l17 8-12 29-18-8c-10 19-22 38-36 54 39 34 91 55 147 55 56 0 108-21 147-55-14-17-26-35-36-54l-18 8-13-29 18-8c-8-22-12-46-14-70l-19 0 0-32 19 0c2-24 6-48 14-70l-18-8 13-29 18 8c10-19 22-37 36-54-39-34-91-55-147-55-56 0-108 21-147 55z m317 22c-12 14-22 29-30 44l17 8-12 29-17-7c-7 18-11 38-12 57l18 0 0 32-18 0c1 19 5 39 12 57l17-7 12 29-17 8c8 15 18 30 30 44 34-40 54-91 54-147 0-56-20-107-54-147z"/>
<glyph glyph-name="baseball-hat" unicode="&#57365;" d="M509 271l0 31-56 0c-3 55-26 105-65 144-43 43-99 66-159 66-61 0-117-23-160-66-42-43-66-99-66-159 0-35 8-70 24-101l-1 0 77-134c19-32 53-52 90-52 56 0 103 46 103 103 0 37-20 71-52 89l0 79z m-287-103c25-12 42-37 42-65 0-39-32-71-71-71-26 0-50 13-62 36l-64 111c0 0-7 12-7 12-16 29-25 62-25 96 0 106 87 193 194 193 101 0 185-78 193-178l-209 0 0-130z m-29-43c-15 0-27-11-27-26 0-15 12-26 27-26 14 0 26 11 26 26 0 15-12 26-26 26z"/>
<glyph glyph-name="baseball-bat" unicode="&#57366;" d="M491 491c-29 28-75 28-103 0-37-37-296-328-354-393l-12 12-22-21 89-89 21 22-11 12c64 57 355 317 392 354 28 28 28 74 0 103z m-435-415c17 18 52 58 94 105l32-32c-48-42-87-77-105-93z m413 334c-24-24-157-144-264-240l-34 34c95 107 215 241 239 265 16 16 43 16 59 0 16-16 16-43 0-59z"/>
<glyph glyph-name="baseball-glove" unicode="&#57367;" d="M447 455c-11 0-21-3-29-9-10 17-27 28-47 28-11 0-21-3-30-9-9 17-27 28-47 28-11 0-21-3-29-9-9 17-27 28-47 28-30 0-54-24-54-54l0-41-47 0c-7 22-28 38-52 38-30 0-54-25-54-54l0-156c0-65 26-127 72-173 46-47 108-72 173-72 65 0 127 25 173 72 46 46 72 108 72 173l0 156c0 29-24 54-54 54z m-328-167l45 0 0-43c0-12-10-22-23-22-12 0-22 10-22 22z m45 32l-45 0 0 65 45 0z m-33-248l250 0c-35-25-78-40-125-40-47 0-90 15-125 40z m338 173c0-54-20-103-53-141l-68 0 0 27-31 0 0-27-45 0 0 27-32 0 0-27-45 0 0 27-31 0 0-27-68 0c-33 38-53 87-53 141l0 156c0 12 10 22 22 22 12 0 22-10 22-22l0-156c0-30 25-54 54-54 30 0 54 24 54 54l0 213c0 12 10 22 23 22 12 0 22-10 22-22l0-19c0 0 0 0 0 0 0 0 0-152 0-152l32 0 0 152c0 12 10 22 22 22 13 0 23-10 23-22l0-171 31 0 0 152c0 12 10 22 23 22 12 0 22-10 22-22l0-171 32 0 0 152c0 12 10 22 22 22 12 0 22-10 22-22z"/>
<glyph glyph-name="basketball" unicode="&#57368;" d="M437 437c-48 48-113 75-181 75-68 0-133-27-181-75-48-48-75-113-75-181 0-68 27-133 75-181 48-48 113-75 181-75 68 0 133 27 181 75 48 48 75 113 75 181 0 68-27 133-75 181z m-165 43c52-4 100-25 138-61-40-32-88-50-138-54z m-32-115c-50 4-98 22-138 54 38 36 86 57 138 61z m0-31l0-62-208 0c3 44 20 87 49 124 45-37 101-59 159-62z m0-94l0-62c-58-3-114-25-159-62-29 37-46 80-49 124z m0-93l0-115c-52 4-100 25-138 61 40 32 88 50 138 54z m32 0c50-4 98-22 138-54-38-36-86-57-138-61z m0 31l0 62 208 0c-3-45-20-88-49-124-45 37-101 59-159 62z m0 94l0 62c58 3 114 25 159 62 29-36 46-79 49-124z"/>
<glyph glyph-name="basketball-court" unicode="&#57369;" d="M0 437l0-362 512 0 0 362z m240-214c-12 6-21 18-21 33 0 15 9 27 21 33z m32 66c12-6 21-18 21-33 0-15-9-27-21-33z m-240-17l0 64 14 0c44 0 81-36 81-80 0-44-37-80-81-80l-14 0 0 64 36 0 0 32z m0-128l14 0c62 0 112 50 112 112 0 62-50 112-112 112l-14 0 0 37 208 0 0-82c-30-7-53-35-53-67 0-32 23-60 53-67l0-82-208 0z m240-37l0 82c30 7 53 35 53 67 0 32-23 60-53 67l0 82 208 0 0-37-14 0c-62 0-112-50-112-112 0-62 50-112 112-112l14 0 0-37z m208 133l0-64-14 0c-44 0-81 36-81 80 0 44 37 80 81 80l14 0 0-64-36 0 0-32z"/>
<glyph glyph-name="bowling" unicode="&#57370;" d="M437 437c-48 48-113 75-181 75-68 0-133-27-181-75-48-48-75-113-75-181 0-68 27-133 75-181 48-48 113-75 181-75 68 0 133 27 181 75 48 48 75 113 75 181 0 68-27 133-75 181z m-181-405c-124 0-224 100-224 224 0 124 100 224 224 224 124 0 224-100 224-224 0-124-100-224-224-224z m-63 293c-15 0-27-12-27-27 0-14 12-26 27-26 14 0 26 12 26 26 0 15-12 27-26 27z m126 0c-14 0-26-12-26-27 0-14 12-26 26-26 15 0 27 12 27 26 0 15-12 27-27 27z m-63 84c-15 0-26-12-26-26 0-15 11-27 26-27 15 0 26 12 26 27 0 14-11 26-26 26z"/>
<glyph glyph-name="bowling-alt" unicode="&#57371;" d="M343 254c-13 26-27 52-31 83-3 20 0 53 2 80 1 14 2 27 2 35 0 33-27 60-60 60-33 0-60-27-60-60 0-8 1-21 2-35 2-27 5-60 2-80-4-31-18-57-31-83-15-29-30-59-30-96 0-61 28-144 29-147l4-11 168 0 4 11c1 3 29 86 29 147 0 37-15 67-30 96z m-87 226c15 0 28-12 28-28 0-7-1-19-2-33-2-21-3-47-3-68l-46 0c0 21-1 47-3 68-1 14-2 26-2 33 0 16 13 28 28 28z m61-448l-122 0c-8 23-24 82-24 126 0 29 12 54 27 82 11 23 24 49 31 79l54 0c7-30 20-56 31-79 15-28 27-53 27-82 0-44-16-103-24-126z"/>
<glyph glyph-name="boxing" unicode="&#57372;" d="M291 512c-41 0-79-16-108-44-25-25-41-57-45-92l-2 0c-38 0-69-31-69-69l0-44c0-26 5-50 15-71 10-21 24-39 41-54 5-4 9-7 14-10l0-79c0-27 22-49 49-49l162 0c27 0 49 22 49 49l0 96c14 14 25 29 33 47 10 21 15 45 15 71l0 95c0 85-69 154-154 154z m57-480l-162 0c-9 0-17 7-17 17l0 61c26-11 56-17 87-17 40 0 78 10 109 28l0-72c0-10-8-17-17-17z m65 231c0-81-64-138-157-138-93 0-157 57-157 138l0 44c0 21 17 38 37 38l1 0 0-89 32 0 0 104c1 67 56 120 122 120 67 0 122-54 122-122z"/>
<glyph glyph-name="dart" unicode="&#57373;" d="M512 489l-23 23-82-83c-7 4-15 6-23 6-13 0-26-6-35-15-17-19-125-131-202-212l-56-1-91-91 73-39 43-77 91 91 1 55c82 78 194 185 212 203 9 9 15 21 15 35 0 8-2 16-5 23z m-459-365l52 51 42 1 1-1-66-67z m71-71l-19 33 66 66 5-5 0-42z m274 319c-18-17-125-119-205-196l-17 16c77 81 179 188 196 206 3 3 8 5 12 5 5 0 10-2 14-6 3-3 5-8 5-13 0-5-2-9-5-12z"/>
<glyph glyph-name="dart-board" unicode="&#57374;" d="M437 437c-48 48-113 75-181 75-68 0-133-27-181-75-48-48-75-113-75-181 0-68 27-133 75-181 48-48 113-75 181-75 68 0 133 27 181 75 48 48 75 113 75 181 0 68-27 133-75 181z m-181-405c-124 0-224 100-224 224 0 124 100 224 224 224 124 0 224-100 224-224 0-124-100-224-224-224z m124 348c-33 34-77 52-124 52-47 0-91-18-124-52-34-33-52-77-52-124 0-47 18-91 52-124 33-34 77-52 124-52 47 0 91 18 124 52 34 33 52 77 52 124 0 47-18 91-52 124z m-124-268c-80 0-144 64-144 144 0 80 64 144 144 144 80 0 144-64 144-144 0-80-64-144-144-144z m0 240c-53 0-96-43-96-96 0-53 43-96 96-96 53 0 96 43 96 96 0 53-43 96-96 96z m0-160c-35 0-64 29-64 64 0 35 29 64 64 64 35 0 64-29 64-64 0-35-29-64-64-64z"/>
<glyph glyph-name="dart-board-alt" unicode="&#57375;" d="M437 437c-48 48-113 75-181 75-68 0-133-27-181-75-48-48-75-113-75-181 0-68 27-133 75-181 48-48 113-75 181-75 68 0 133 27 181 75 48 48 75 113 75 181 0 68-27 133-75 181z m43-165l-49 0c-3 36-17 69-40 97l34 34c31-36 51-81 55-131z m-111 119c-28 23-61 37-97 40l0 49c50-4 95-24 131-55z m-129-97l-74 75c21 16 46 27 74 30z m0-181c-28 3-53 14-74 30l74 75z m32 105l74-75c-21-16-46-27-74-30z m0 181c28-3 53-14 74-30l-74-75z m-32 32c-36-3-69-17-97-40l-34 34c36 31 81 51 131 55z m-22-159l-105 0c3 28 14 53 30 74z m0-32l-75-74c-16 21-27 46-30 74z m-75-119c28-23 61-37 97-40l0-49c-50 4-95 24-131 55z m129-40c36 3 69 17 97 40l34-34c-36-31-81-51-131-55z m22 159l105 0c-3-28-14-53-30-74z m0 32l75 74c16-21 27-46 30-74z m-207 131l34-34c-23-28-37-61-40-97l-49 0c4 50 24 95 55 131z m-55-163l49 0c3-36 17-69 40-97l-34-34c-31 36-51 81-55 131z m393-131l-34 34c23 28 37 61 40 97l49 0c-4-50-24-95-55-131z"/>
<glyph glyph-name="dumbbell" unicode="&#57376;" d="M390 417l0-145-268 0 0 145-122 0 0-322 122 0 0 145 268 0 0-145 122 0 0 322z m-300-290l-58 0 0 258 58 0z m390 0l-58 0 0 258 58 0z"/>
<glyph glyph-name="fencing" unicode="&#57377;" d="M512 157l-11 11c-21 21-49 32-78 32-24 0-47-7-66-22l-78 79 231 232-22 22-232-232-232 232-22-22 231-232-78-79c-19 15-42 22-66 22-29 0-57-11-78-32l-11-11 67-67-65-65 22-23 65 65 67-66 11 11c39 39 43 101 11 144l78 78 78-78c-32-43-28-105 11-144l11-11 67 66 65-65 22 23-65 65z m-357-110l-109 108c13 9 28 13 43 13 21 0 41-8 55-23 27-26 30-67 11-98z m213 98c14 15 34 23 55 23 15 0 30-4 43-13l-109-108c-19 31-16 72 11 98z"/>
<glyph glyph-name="field" unicode="&#57378;" d="M0 422l0-332 512 0 0 332z m387-227l-42 0 0 122 42 0z m-73 0l-42 0 0 122 42 0z m-189 122l42 0 0-122-42 0z m73 0l42 0 0-122-42 0z m74 31l0 43 42 0 0-43z m-32 0l-42 0 0 43 42 0z m-73 0l-42 0 0 43 42 0 0-43z m-42-184l42 0 0-43-42 0z m73 0l42 0 0-43-42 0z m74 0l42 0 0-43-42 0z m73 0l42 0 0-43-42 0z m42 184l-42 0 0 43 42 0z m-355-108l26 0 0 32-26 0 0 119 61 0 0-270-61 0z m387-119l0 270 61 0 0-119-26 0 0-32 26 0 0-119z"/>
<glyph glyph-name="football" unicode="&#57379;" d="M437 437c-48 48-113 75-181 75-68 0-133-27-181-75-48-48-75-113-75-181 0-68 27-133 75-181 48-48 113-75 181-75 68 0 133 27 181 75 48 48 75 113 75 181 0 68-27 133-75 181z m-75-299l-38 52 27 81 60 19 69-50c-3-38-15-72-34-102z m-212 0l-84 0c-19 30-31 64-34 102l69 50 60-19 27-81z m-70 175l-47-34c3 32 13 63 29 89z m137-110l-25 75 64 46 64-46-25-75z m215 110l18 55c16-26 26-57 29-89z m-5 88l-26-81-60-18-69 50 0 62 69 50c33-14 63-36 86-63z m-124 74l-47-34-47 34c15 4 31 5 47 5 16 0 32-1 47-5z m-132-11l69-50 0-62-69-50-60 18-26 81c23 27 53 49 86 63z m-82-358l58 0 18-55c-29 13-55 32-76 55z m113-68l-26 81 37 53 86 0 37-53-26-81c-18-4-35-6-54-6-19 0-36 2-54 6z m145 13l18 55 58 0c-21-23-47-42-76-55z"/>
<glyph glyph-name="football-field" unicode="&#57380;" d="M0 437l0-362 512 0 0 362z m240-223c-17 6-29 23-29 42 0 19 12 36 29 42z m32 84c17-6 29-23 29-42 0-19-12-36-29-42z m-240 15l43 0 0-114-43 0z m0-146l74 0 0 178-74 0 0 60 208 0 0-74c-35-7-61-38-61-75 0-37 26-68 61-75l0-74-208 0z m240-60l0 74c35 7 61 38 61 75 0 37-26 68-61 75l0 74 208 0 0-60-74 0 0-178 74 0 0-60z m208 206l0-114-43 0 0 114z"/>
<glyph glyph-name="goal" unicode="&#57381;" d="M0 438l0-364 32 0 0 310 42-42 0-222 32 0 0 46 51 0 0-46 32 0 0 46 51 0 0-46 32 0 0 46 51 0 0-46 32 0 0 46 51 0 0-46 32 0 0 222 42 42 0-310 32 0 0 364z m106-105l51 0 0-52-51 0z m300 0l0-52-51 0 0 52z m-83-52l-51 0 0 52 51 0z m-83 0l-51 0 0 52 51 0z m-134-83l0 51 51 0 0-51z m83 0l0 51 51 0 0-51z m83 0l0 51 51 0 0-51z m83 0l0 51 51 0 0-51z m61 166l-320 0-42 42 404 0z"/>
<glyph glyph-name="golf" unicode="&#57382;" d="M284 116c-7 0-14-1-20-3l-62-24 0 423-32 0 0-466c0-25 20-46 46-46l68 0c32 0 58 26 58 58 0 32-26 58-58 58z m0-84l-68 0c-8 0-14 6-14 14 0 6 3 11 9 13l64 24c3 1 6 2 9 2 15 0 26-12 26-27 0-14-11-26-26-26z"/>
<glyph glyph-name="hockey" unicode="&#57383;" d="M475 99l-167 0-34 69 162 325-28 15-152-305-152 305-28-15 162-325-34-69-167 0c-20 0-37-16-37-37l0-21c0-20 17-37 37-37l124 0c18 0 37 12 45 28l50 100 50-100c8-16 27-28 45-28l124 0c20 0 37 17 37 37l0 21c0 21-17 37-37 37z m-297-53c-3-5-11-10-17-10l-124 0c-3 0-5 2-5 5l0 21c0 3 2 6 5 6l151 0z m302-5c0-3-2-5-5-5l-124 0c-6 0-14 5-17 10l-10 22 151 0c3 0 5-3 5-6z"/>
<glyph glyph-name="hockey-alt" unicode="&#57384;" d="M512 300l-10 57c-3 19-20 34-39 34l-44 0c-18 33-44 62-76 83-36 23-77 35-120 35-60 0-116-23-158-65-42-42-65-98-65-158 0-34 8-68 23-99l0 0 76-133c18-31 52-51 88-51 51 0 93 38 101 86l92 0 13-86 101 0 0 262c4 2 7 5 10 8 6 7 9 17 8 27z m-118-94l-8 55 77 0 0-55z m69-31l0-55-56 0-8 55z m-225 31l0 55 116 0 8-55z m-51-172c-25 0-49 14-61 36l-63 110c0 0-7 11-7 11-16 29-25 62-25 95 0 106 86 192 192 192 64 0 125-34 160-87l-180 0 0-32 260 0c4 0 8-3 9-7l9-57c0-1 0-2-1-2 0 0-1 0-1 0l-272 0 0-120 9-4c25-12 41-37 41-64 0-39-31-71-70-71z m101 86c-4 21-13 40-28 55l107 0 8-55z m132-86l-9 55 52 0 0-55z m-233 93c-14 0-26-12-26-26 0-14 12-26 26-26 14 0 26 12 26 26 0 14-12 26-26 26z"/>
<glyph glyph-name="hockey-box" unicode="&#57385;" d="M422 429l-332 0c-50 0-90-40-90-89l0-168c0-49 40-89 90-89l332 0c50 0 90 40 90 89l0 168c0 49-40 89-90 89z m-316-217c18 7 31 24 31 44 0 20-13 38-31 44l0 98 134 0 0-86c-24-7-42-29-42-56 0-26 18-49 42-56l0-86-134 0z m150 18c-15 0-26 12-26 26 0 15 11 27 26 27 15 0 26-12 26-27 0-14-11-26-26-26z m16-30c24 7 42 30 42 56 0 27-18 49-42 56l0 86 134 0 0-98c-18-6-31-24-31-44 0-20 13-37 31-44l0-98-134 0z m-240-28l0 168c0 26 18 49 42 56l0-280c-24 7-42 30-42 56z m448 0c0-26-18-49-42-56l0 280c24-7 42-30 42-56z"/>
<glyph glyph-name="ice-skate" unicode="&#57386;" d="M480 95c0-27-22-49-49-49l-51 0 0 76 55 0 0 62c0 27-21 52-47 58l-1 1c-1 0-84 15-109 20-12 3-23 16-23 29l0 205-234-21 0-354 55 0 0-76-76 0 0-31 431 0c45 0 81 36 81 80l-32 0z m-132-49l-93 0 0 76 93 0z m-295 401l171 16 0-51-61 0 0-31 61 0 0-43-61 0 0-31 61 0 0-15c0-27 20-54 47-60 25-5 103-19 110-21 12-2 22-15 22-27l0-31-350 0z m55-325l116 0 0-76-116 0z"/>
<glyph glyph-name="karate" unicode="&#57387;" d="M398 484l-83 19-59-77-59 77-83-19-114-102 65-101 41 19 0-291 300 0 0 291 41-19 65 101z m-322-163l-35 55 88 79 55 13 175-229-222 0 0 110z m61-281l0 168 71 0 0-132 31 0 0 132 34 0 0-80 31 0 0 80 71 0 0-168z m299 281l-61 28 0-79-99 130 52 68 55-13 88-79z"/>
<glyph glyph-name="ping-pong" unicode="&#57388;" d="M445 446c-42 42-99 66-160 66-61 0-118-24-161-66-28-29-46-63-53-99-5-28 0-55 6-81 8-41 15-77-17-109l-40-40c-27-27-27-70 0-97 13-13 30-20 49-20 18 0 35 7 48 20l40 40c16 16 34 24 58 24 16 0 33-4 51-7 19-4 38-8 58-8 8 0 16 1 23 2 36 7 70 25 98 53 43 43 67 100 67 161 0 61-24 118-67 161z m-230-331c-32 0-58-10-80-33l-40-40c-7-6-17-10-26-10-10 0-20 4-27 10-14 15-14 38 0 53l40 40c45 44 35 93 26 137-3 12-5 23-6 34l204-204c-11 1-22 3-34 6-18 4-38 7-57 7z m208 32c-22-22-47-37-74-43l-245 245c6 27 21 52 43 74 37 37 86 57 138 57 52 0 101-20 138-57 76-76 76-200 0-276z"/>
<glyph glyph-name="racket" unicode="&#57389;" d="M476 476c-24 23-57 36-93 36-48 0-98-22-137-61-25-25-44-56-53-88l-65-212-128-128 23-23 128 128 211 65c32 9 64 27 89 53 34 34 55 75 60 118 5 44-8 84-35 112z m3-108c-1-14-5-27-10-40l-29 30 39 39c1-9 1-19 0-29z m-10 64l-52-52-37 37 52 52c8-5 15-10 21-16 6-6 11-13 16-21z m-113-208l-4-1c-12-4-25-5-37-5-5 0-10 0-14 1l39 39 29-29c-4-2-9-4-13-5z m-90 5c-8 4-15 10-21 16-6 6-12 13-16 21l52 51 36-36z m-47 101c1 8 2 15 4 23l1 3c1 4 3 9 5 13l29-29-39-40c-2 10-2 20 0 30z m84 10l55 54 36-36-54-55z m94 139l-39-39-30 29c18 7 37 11 55 11 5 0 10 0 14-1z m-128-50c9 9 19 17 30 24l36-36-54-54-37 36c7 10 16 21 25 30z m-73-167c6-15 15-28 26-40 12-11 25-20 40-26l-96-30z m233 7c-9-9-20-18-30-25l-36 37 54 54 36-36c-7-11-15-21-24-30z"/>
<glyph glyph-name="roller-skate" unicode="&#57390;" d="M478 143l0 41c0 27-21 52-47 58l-1 1c-1 0-84 15-109 20-12 3-23 16-23 29l0 206-234-22 0-323-64 0 0-31 41 0c-7-11-11-24-11-38 0-38 31-70 69-70 39 0 70 32 70 70 0 14-4 27-11 38l55 0c-7-11-11-24-11-38 0-38 31-70 69-70 38 0 69 32 69 70 0 14-4 27-11 38l55 0c-7-11-11-24-11-38 0-38 31-70 70-70 38 0 69 32 69 70 0 25-14 47-34 59z m-382 304l171 16 0-51-61 0 0-31 61 0 0-43-61 0 0-31 61 0 0-15c0-27 20-54 47-60 25-5 103-19 110-21 12-2 22-15 22-27l0-31-350 0z m41-363c0-21-17-38-38-38-20 0-37 17-37 38 0 21 17 38 37 38 21 0 38-17 38-38z m172 0c0-21-17-38-38-38-21 0-38 17-38 38 0 21 17 38 38 38 21 0 38-17 38-38z m134-38c-21 0-38 17-38 38 0 21 17 38 38 38 20 0 37-17 37-38 0-21-17-38-37-38z"/>
<glyph glyph-name="rugby" unicode="&#57391;" d="M510 407c-4 29-15 53-32 71-23 22-55 34-95 34-80 0-179-48-257-126-57-58-99-126-117-192-8-33-11-63-7-89 4-29 15-53 32-71 23-22 55-34 95-34 80 0 179 48 257 126 57 58 99 126 117 192 8 33 11 63 7 89z m-435-356c-6 0-14 1-18 6-9 8-10 37 17 90 26 53 71 111 125 166 97 97 193 148 238 148 6 0 14-1 18-6 9-8 10-38-17-90-26-53-71-111-125-166-97-97-193-148-238-148z m74 312c71 72 160 117 232 117-59-22-135-75-204-145-57-57-104-118-131-173-6-11-11-22-14-31 0 16 3 35 8 55 16 60 55 124 109 177z m214-214c-71-72-160-117-232-117 59 22 135 75 204 145 57 57 104 118 131 173 6 11 11 22 14 31 0-16-3-35-8-55-16-60-55-124-109-177z"/>
<glyph glyph-name="skateboard" unicode="&#57392;" d="M473 473c-25 25-58 39-93 39-35 0-68-14-93-39l-248-248c-52-51-52-135 0-186 25-25 58-39 93-39 35 0 68 14 93 39l248 248c52 51 52 135 0 186z m-22-164l-248-248c-19-19-44-29-71-29-27 0-52 10-71 29-39 39-39 103 0 142l248 248c19 19 44 29 71 29 27 0 52-10 71-29 39-39 39-103 0-142z m-249-160l-53 53 21 21-22 22-65-65 23-22 21 21 52-52-21-21 22-23 65 65-22 22z m183 184l-52 52 21 21-22 23-65-65 22-22 21 21 53-53-21-21 22-22 65 65-23 22z"/>
<glyph glyph-name="surfboard" unicode="&#57393;" d="M512 497l-1 14-14 1c0 0-2 0-4 0-28 0-176-7-315-145-46-46-91-103-123-155-26-42-57-102-55-148l0-6 58-58 6 0c1 0 3 0 4 0 79 0 210 90 299 178 78 79 114 161 129 216 18 60 16 101 16 103z m-430-302c31 50 74 105 119 149 55 55 118 95 187 117 26 9 49 14 67 16l-415-414-8 8c1 30 18 74 50 124z m262 6c-43-44-97-87-146-118-52-32-96-50-127-51l-8 8 414 415c-8-55-36-157-133-254z"/>
<glyph glyph-name="tennis" unicode="&#57394;" d="M437 437c-48 48-113 75-181 75-68 0-133-27-181-75-48-48-75-113-75-181 0-68 27-133 75-181 48-48 113-75 181-75 68 0 133 27 181 75 48 48 75 113 75 181 0 68-27 133-75 181z m-66 12c-14-30-8-60-2-90 4-18 7-37 7-58 0-66-54-120-120-120-66 0-120 54-120 120 0 21 3 40 7 58 6 30 12 60-2 90 34 20 73 31 115 31 42 0 81-11 115-31z m-115-417c-124 0-224 100-224 224 0 70 32 133 83 174 6-19 2-39-3-65-4-19-8-40-8-64 0-84 68-152 152-152 84 0 152 68 152 152 0 24-4 45-8 64-5 26-9 46-3 65 51-41 83-104 83-174 0-124-100-224-224-224z"/>
<glyph glyph-name="tennis-court" unicode="&#57395;" d="M0 422l0-332 512 0 0 332z m480-64l-208 0 0 33 208 0z m-108-86l-100 0 0 55 100 0z m-132 0l-100 0 0 55 100 0z m-132-87l-76 0 0 142 76 0z m32 55l100 0 0-55-100 0z m132 0l100 0 0-55-100 0z m132 87l76 0 0-142-76 0z m-164 64l0-33-208 0 0 33z m-208-237l208 0 0-33-208 0z m240-33l0 33 208 0 0-33z"/>
<glyph glyph-name="uniform" unicode="&#57396;" d="M314 494l-5-8c0 0-15-26-53-26-36 0-52 24-53 26l-4 8-199 0 0-185 92 0 0-291 328 0 0 291 92 0 0 185z m-58-66c41 0 65 22 75 35l86 0 0-122-29 0 0-228-264 0 0 228-29 0 0 122 86 0c10-13 34-35 75-35z m-224 35l31 0 0-122-31 0z m92-414l0 32 264 0 0-32z m356 292l-31 0 0 122 31 0z m-240-136l32 0 0 149-61 0 0-32 29 0z"/>
<glyph glyph-name="volleyball" unicode="&#57397;" d="M437 437c-48 48-113 75-181 75-68 0-133-27-181-75-48-48-75-113-75-181 0-68 27-133 75-181 48-48 113-75 181-75 68 0 133 27 181 75 48 48 75 113 75 181 0 68-27 133-75 181z m-185-405c-30 0-59 7-84 18 27 20 51 46 69 76 21 37 33 78 35 121 26 13 54 22 83 24 21-93-21-190-103-239z m126 272c-42 0-84-10-122-30-25 16-46 37-63 60 71 65 175 77 259 30 14-24 23-52 27-81-32 13-66 21-101 21z m37 110c-82 24-172 5-239-52-14 28-23 60-24 93 31 16 66 25 104 25 62 0 118-25 159-66z m-293 22c4-35 14-68 31-98 21-37 51-68 87-91-1-30-8-58-20-85-92 30-154 114-156 210 15 25 35 46 58 64z m-90-180c0 20 2 40 8 59 20-83 81-152 164-181-17-27-40-50-68-67-63 39-104 109-104 189z m281-217c62 59 91 147 75 233 32-2 63-10 92-25-4-100-74-183-167-208z"/>
<glyph glyph-name="volleyball-net" unicode="&#57398;" d="M480 461l0-48-448 0 0 48-32 0 0-410 32 0 0 185 448 0 0-185 32 0 0 410z m-74-79l0-114-300 0 0 114z m-374 0l42 0 0-114-42 0z m406-114l0 114 42 0 0-114z"/>
<glyph glyph-name="whistle" unicode="&#57399;" d="M310 347c-50 0-91-41-91-91 0-50 41-91 91-91 50 0 91 41 91 91 0 50-41 91-91 91z m0-151c-33 0-60 27-60 60 0 33 27 60 60 60 33 0 60-27 60-60 0-33-27-60-60-60z m202 76l-38 0c-8 83-79 148-164 148l-310 0 0-139 146-37c7-85 78-152 164-152 85 0 156 65 164 148l38 0z m-202-149c-73 0-133 60-133 133l0 12-146 37 0 84 279 0c73 0 133-60 133-133 0-73-60-133-133-133z"/>
<glyph glyph-name="abacus" unicode="&#57400;" d="M489 95l0 417-31 0 0-18-404 0 0 18-31 0 0-417-23 0 0-95 512 0 0 95z m-221 163l0-37-87 0 0 37-95 0 0-37-32 0 0 116 32 0 0-38 158 0 0 38 87 0 0-38 95 0 0 38 32 0 0-116-32 0 0 37z m31-75l0 43 32 0 0-43z m64 43l31 0 0-43-31 0z m-214 0l0-43-31 0 0 43z m64 148l0-43-32 0 0 43z m-64-43l-31 0 0 43 31 0z m214 0l0 43 31 0 0-43z m95 131l0-94-32 0 0 38-95 0 0-38-87 0 0 38-158 0 0-38-32 0 0 94z m-404-273l32 0 0-38 95 0 0 38 87 0 0-38 158 0 0 38 32 0 0-94-404 0z m426-157l-448 0 0 31 448 0z"/>
<glyph glyph-name="achievement" unicode="&#57401;" d="M272 283l0 229-162 0 0-139 130 0 0-90-240-260 0-23 512 0 0 23z m60-112l-26-19-50 36-50-36-26 19 76 82z m-190 234l0 75 98 0 0-75z m-91-373l107 115 48-34 50 36 50-36 48 34 107-115z"/>
<glyph glyph-name="agenda" unicode="&#57402;" d="M512 348l0 127-57 0 0 34-429 0 0-119-23 0 0-31 23 0 0-87-26 0 0-32 26 0 0-87-26 0 0-31 26 0 0-119 429 0 0 34 57 0 0 127-57 0 0 28 57 0 0 128-57 0 0 28z m-31 96l0-64-26 0 0 64z m-424-322l27 0 0 31-27 0 0 87 27 0 0 32-27 0 0 87 27 0 0 31-27 0 0 88 53 0 0-444-53 0z m366-88l-282 0 0 444 282 0z m58 98l0-64-26 0 0 64z m0 156l0-64-26 0 0 64z"/>
<glyph glyph-name="agenda-alt" unicode="&#57403;" d="M313 348c0-26-21-47-46-47-26 0-47 21-47 47 0 26 21 46 47 46 25 0 46-20 46-46z m-46-63c-47 0-85-37-85-84l169 0c0 47-38 84-84 84z m184-202l0 429-390 0 0-512 390 0 0 32-21 0 0 51z m-358 397l326 0 0-365-326 0z m305-448l-305 0 0 51 305 0z"/>
<glyph glyph-name="archive" unicode="&#57404;" d="M0 512l0-512 512 0 0 512z m320-32l0-448-128 0 0 448z m-288 0l128 0 0-448-128 0z m448-448l-128 0 0 448 128 0z m-64 37c15 0 27 12 27 27 0 14-12 26-27 26-14 0-26-12-26-26 0-15 12-27 26-27z m-16 368l32 0 0-164-32 0z m-144-368c15 0 26 12 26 27 0 14-11 26-26 26-15 0-26-12-26-26 0-15 11-27 26-27z m-16 368l32 0 0-164-32 0z m-144-315c-15 0-27-12-27-26 0-15 12-27 27-27 14 0 26 12 26 27 0 14-12 26-26 26z m-16 315l32 0 0-164-32 0z"/>
<glyph glyph-name="balance" unicode="&#57405;" d="M434 396l-162 0 0 24c18 6 32 24 32 44 0 27-22 48-48 48-26 0-48-21-48-48 0-20 14-38 32-44l0-24-162 0-78-171 0-4c0-48 40-88 88-88 49 0 88 40 88 88l0 4-63 139 127 0 0-269-76 0-32-95 248 0-32 95-76 0 0 269 127 0-63-139 0-4c0-48 39-88 88-88 48 0 88 40 88 88l0 4z m-178 84c9 0 16-7 16-16 0-8-7-15-16-15-9 0-16 7-16 15 0 9 7 16 16 16z m-168-315c-25 0-47 17-54 41l108 0c-6-24-28-41-54-41z m48 72l-96 0 48 105z m200-205l-160 0 11 31 138 0z m88 310l48-105-96 0z m0-177c-26 0-48 17-54 41l108 0c-7-24-29-41-54-41z"/>
<glyph glyph-name="bank" unicode="&#57406;" d="M485 288l0 101-229 123-229-123 0-101 22 0 0-181-22 0 0-107 458 0 0 107-22 0 0 181z m-277-181l0 181 96 0 0-181z m-149 213l0 43 394 0 0-43z m346 76l-298 0 149 79z m-324-108l95 0 0-181-95 0z m372-256l-394 0 0 43 394 0z m-22 75l-95 0 0 181 95 0z"/>
<glyph glyph-name="bar-chart" unicode="&#57407;" d="M369 512l0-480-42 0 0 360-142 0 0-360-42 0 0 240-143 0 0-272 512 0 0 512z m-258-480l-79 0 0 208 79 0z m105 328l80 0 0-328-80 0z m264-328l-79 0 0 448 79 0z"/>
<glyph glyph-name="bar-chart-1" unicode="&#57408;" d="M512 185l0 142-480 0 0 42 240 0 0 143-272 0 0-512 392 0 0 143-360 0 0 42z m-480 295l208 0 0-79-208 0z m448-184l0-80-448 0 0 80z m-120-185l0-79-328 0 0 79z"/>
<glyph glyph-name="bar-chart-2" unicode="&#57409;" d="M360 512l0-80-120 0 0-80-120 0 0-80-120 0 0-272 512 0 0 512z m-120-192l0-288-88 0 0 288z m-208-80l88 0 0-208-88 0z m240-208l0 368 88 0 0-368z m208 0l-88 0 0 448 88 0z"/>
<glyph glyph-name="bill" unicode="&#57410;" d="M0 419l0-326 512 0 0 326z m480-98c-33 6-59 33-66 66l66 0z m0-32l0-66c-51-7-91-47-98-98l-252 0c-7 51-47 91-98 98l0 66c51 7 91 47 98 98l252 0c7-51 47-91 98-98z m-382 98c-7-33-33-60-66-66l0 66z m-66-196c33-6 59-33 66-66l-66 0z m382-66c7 33 33 60 66 66l0-66z m-158 211c-44 0-80-36-80-80 0-44 36-80 80-80 44 0 80 36 80 80 0 44-36 80-80 80z m0-128c-26 0-48 22-48 48 0 26 22 48 48 48 26 0 48-22 48-48 0-26-22-48-48-48z"/>
<glyph glyph-name="bills" unicode="&#57411;" d="M3 512l0-512 506 0 0 512z m475-97c-33 7-59 33-65 65l65 0z m-304-193l-43 0c-7 50-46 90-97 97l0 64c51 7 90 47 97 97l43 0z m32 258l100 0 0-258-100 0z m-107-258l-65 0 0 65c33-7 59-33 65-65z m75-32l0-32-140 0 0 32z m0-63l0-32-140 0 0 32z m32 63l100 0 0-158-100 0z m132-63l140 0 0-32-140 0z m0 31l0 32 140 0 0-32z m75 64c6 32 32 58 65 65l0-65z m-32 0l-43 0 0 258 43 0c7-50 46-90 97-97l0-64c-51-7-90-47-97-97z m-282 258c-6-32-32-58-65-65l0 65z m-65-417l140 0 0-31-140 0z m304-31l0 31 140 0 0-31z"/>
<glyph glyph-name="book" unicode="&#57412;" d="M281 340l31 0c0 26-17 47-40 54l0 11-32 0 0-11c-23-7-40-28-40-54 0-26 14-46 39-54l1 0 0-50c-5 5-9 12-9 19l-31 0c0-25 17-47 40-54l0-10 32 0 0 10c23 7 40 29 40 54 0 27-14 46-39 54l-1 0 0 50c5-4 9-11 9-19z m-50 0c0 8 4 15 9 19l0-38c-6 4-9 10-9 19z m50-85c0-7-4-14-9-19l0 39c6-4 9-10 9-20z m170-172l0 429-390 0 0-512 390 0 0 32-21 0 0 51z m-358 397l326 0 0-365-326 0z m305-448l-305 0 0 51 305 0z"/>
<glyph glyph-name="briefcase" unicode="&#57413;" d="M332 416l0 63-152 0 0-63-180 0 0-383 512 0 0 383z m-120 32l88 0 0-32-88 0z m268-64l0-94-448 0 0 94z m-245-126l42 0 0-31-42 0z m-203-194l0 194 171 0 0-63 106 0 0 63 171 0 0-194z"/>
<glyph glyph-name="business-card" unicode="&#57414;" d="M0 438l0-364 512 0 0 364z m480-333l-448 0 0 302 448 0z m-401 188l354 0 0-32-354 0z m102 63l150 0 0-31-150 0z m-102-169l101 0 0-31-101 0z m127 0l100 0 0-31-100 0z m126 0l101 0 0-31-101 0z"/>
<glyph glyph-name="cabinet" unicode="&#57415;" d="M319 449l114 0 0-32-114 0z m36-64l42 0 0-31-42 0z m-355 127l0-512 512 0 0 512z m480-240l-208 0 0 208 208 0z m-240 208l0-208-208 0 0 208z m-208-240l208 0 0-208-208 0z m240-208l0 208 208 0 0-208z m-193 417l114 0 0-32-114 0z m36-64l42 0 0-31-42 0z m215-177l103 0 0-31-103 0z m25-63l42 0 0-32-42 0z m-276 63l114 0 0-31-114 0z m36-63l42 0 0-32-42 0z"/>
<glyph glyph-name="office-cart" unicode="&#57416;" d="M420 96c-27 0-48-22-48-48 0-27 21-48 48-48 26 0 47 21 47 48 0 26-21 48-47 48z m0-64c-9 0-17 7-17 16 0 9 8 16 17 16 9 0 16-7 16-16 0-9-7-16-16-16z m-297 64c-27 0-48-22-48-48 0-27 21-48 48-48 26 0 48 21 48 48 0 26-22 48-48 48z m0-64c-9 0-16 7-16 16 0 9 7 16 16 16 9 0 16-7 16-16 0-9-7-16-16-16z m363 127l0 279-387 0 0-279-32 0 0 353-67 0 0-32 36 0 0-353 476 0 0 32z m-32 93l-323 0 0 61 323 0z m0 154l0-61-323 0 0 61z m-323-186l323 0 0-61-323 0z"/>
<glyph glyph-name="circular-diagram" unicode="&#57417;" d="M506 218c-11 42-38 77-76 99-3 2-7 4-11 6 0 4 0 9 0 13 0 90-73 164-163 164-90 0-163-74-163-164 0-4 0-9 0-13-4-2-8-4-11-6-38-22-65-57-76-99-12-42-6-86 16-124 29-50 83-82 141-82 29 0 57 8 82 22 4 3 7 5 11 8 4-3 7-5 11-8 25-14 53-22 82-22 58 0 112 32 141 82 22 38 28 82 16 124z m-381 118c0 73 59 132 131 132 72 0 131-59 131-132 0 0 0-1 0-2-12 3-25 5-38 5-34 0-66-11-93-29-27 18-59 29-93 29-13 0-26-2-38-5 0 1 0 2 0 2z m131-253c-25 25-39 60-39 95 13-3 26-5 39-5 13 0 26 2 39 5 0-35-14-70-39-95z m0 122c-12 0-23 2-34 4 3 11 7 22 13 32 6 10 13 20 21 28 8-8 15-18 21-28 6-10 10-21 13-32-11-2-22-4-34-4z m-64 16c-30 18-54 47-63 82 11 3 23 4 34 4 24 0 48-7 68-19-9-9-17-19-23-31-7-11-12-23-16-36z m112 36c-6 12-14 22-23 31 20 12 44 19 68 19 11 0 23-1 34-4-9-35-33-64-63-82-4 13-9 25-16 36z m-141-213c-47 0-90 25-114 66-17 30-22 66-13 100 9 34 31 62 61 79 1 1 2 1 2 2 14-45 46-82 87-102-3-46 13-92 45-126-1 0-1-1-2-1-20-12-43-18-66-18z m300 66c-24-41-67-66-114-66-23 0-46 6-66 18-1 0-1 1-2 1 32 34 48 80 45 126 41 20 73 57 87 102 0-1 1-1 2-2 30-17 52-45 61-79 9-34 4-70-13-100z"/>
<glyph glyph-name="clip" unicode="&#57418;" d="M470 97l0 192-149 0c-2 13-4 25-6 37-6 30 11 45 30 61 16 13 34 28 34 52 0 46-63 73-123 73-60 0-123-27-123-73 0-24 18-39 34-52 19-16 36-31 30-61-2-12-4-24-6-37l-149 0 0-192-17 0 0-97 462 0 0 97-17 0z m-32 160l0-160-86 0c-7 45-16 103-26 160z m-246-160c8 46 17 104 26 160l76 0c9-56 18-114 26-160z m133-32c2-13 4-24 5-33l-148 0c1 9 3 20 5 33z m-138 347c-13 11-21 18-21 27 0 13 17 23 24 27 18 9 42 14 66 14 24 0 48-5 66-14 7-4 24-14 24-27 0-9-8-16-21-27-22-18-51-43-42-91 1-11 3-21 5-32l-64 0c2 11 4 21 5 32 9 48-20 73-42 91z m-113-155l112 0c-10-57-19-115-26-160l-86 0z m-17-192l97 0c-2-14-4-25-5-33l-92 0z m398-33l-92 0c-1 8-3 19-5 33l97 0z"/>
<glyph glyph-name="clipboard" unicode="&#57419;" d="M309 478l0 34-106 0 0-34-124 0 0-478 354 0 0 478z m-74-31l0 33 42 0 0-33 51 0 0-43-144 0 0 43z m167-415l-292 0 0 415 43 0 0-74 206 0 0 74 43 0z"/>
<glyph glyph-name="collaboration" unicode="&#57420;" d="M320 275l0-116 192 0 0 116-80 0 0 77-160 0 0 44 79 0 0 116-190 0 0-116 79 0 0-44-160 0 0-76-80 0 0-116 192 0 0 116-80 0 0 44 128 0 0-204-80 0 0-116 192 0 0 116-80 0 0 204 128 0 0-45z m-127 205l126 0 0-52-126 0z m-33-288l-128 0 0 53 128 0z m160-160l-128 0 0 52 128 0z m160 159l-128 0 0 52 128 0z"/>
<glyph glyph-name="collaboration-alt" unicode="&#57421;" d="M432 116l0 156-160 0 0 124 79 0 0 116-190 0 0-116 79 0 0-124-160 0 0-156-80 0 0-116 512 0 0 116z m-239 364l126 0 0-52-126 0z m207-240l0-124-128 0 0 124z m-80-156l0-52-128 0 0 52z m-208 156l128 0 0-124-128 0z m-80-156l128 0 0-52-128 0z m448-52l-128 0 0 52 128 0z"/>
<glyph glyph-name="conference" unicode="&#57422;" d="M256 407c29 0 53 23 53 52 0 29-24 53-53 53-29 0-53-24-53-53 0-29 24-52 53-52z m0 73c12 0 21-9 21-21 0-11-9-21-21-21-12 0-21 10-21 21 0 12 9 21 21 21z m151-177l-63 0c-7 42-44 74-88 74-44 0-81-32-88-74l-63 0 0-32 26 0 21-271 208 0 21 271 26 0z m-151 42c26 0 49-18 56-42l-112 0c7 24 30 42 56 42z m74-313l-148 0-19 239 186 0z"/>
<glyph glyph-name="deal" unicode="&#57423;" d="M383 405c29 0 53 24 53 54 0 29-24 53-53 53-30 0-54-24-54-53 0-30 24-54 54-54z m0 75c12 0 21-9 21-21 0-12-9-22-21-22-12 0-22 10-22 22 0 12 10 21 22 21z m-93-96l0-93-68 0 0 93-185 0 0-209 19 0 0-175 147 0 0 175 24 0 0 31-56 0 0-174-83 0 0 174-20 0 0 147 45 0 0-99 32 0 0 99 45 0 0-94 132 0 0 94 45 0 0-99 32 0 0 99 45 0 0-147-20 0 0-174-83 0 0 174-56 0 0-31 25 0 0-175 146 0 0 175 19 0 0 209z m-161 21c30 0 54 24 54 54 0 29-24 53-54 53-29 0-53-24-53-53 0-30 24-54 53-54z m0 75c12 0 22-9 22-21 0-12-10-22-22-22-12 0-21 10-21 22 0 12 9 21 21 21z"/>
<glyph glyph-name="decrease" unicode="&#57424;" d="M290 338l-68-68-222 222 0-472 512 0 0 97z m-121-60l37-37 0-189-37 0z m-32-226l-37 0 0 294 37-37z m101 189l36 37 0-226-36 0z m68 37l37-37 0-189-37 0z m69-69l37-37 0-120-37 0z m-343 206l37-37 0-326-37 0z m448-363l-37 0 0 89 37-37z"/>
<glyph glyph-name="desk-lamp" unicode="&#57425;" d="M484 287c0 29-23 53-52 53-9 0-17-2-25-6l-178 178-50-50c-48 18-103 6-140-31l-11-11 187-187 11 11c37 37 49 92 31 140l28 28 100-100c-4-8-6-16-6-25 0-23 15-43 37-50l0-141-274 0-31-96 336 0 0 237c22 7 37 27 37 50z m-265 104l5-10c16-34 12-73-10-103l-141 141c30 22 69 26 103 10l10-5 43 43 33-33z m197-359l-261 0 10 32 251 0z m16 234c-12 0-21 10-21 21 0 12 9 21 21 21 11 0 21-9 21-21 0-11-10-21-21-21z"/>
<glyph glyph-name="devaluation" unicode="&#57426;" d="M1 436l22-22 37 36 0-449 32 0 0 449 37-36 23 22-76 76z m488-338l-37-36 0 449-32 0 0-449-37 36-23-22 76-76 75 76z m-203 206l32 0c0 29-19 53-46 61l0 13-32 0 0-13c-27-8-46-32-46-61 0-29 15-50 43-59l3-1 0-62c-8 6-14 15-14 26l-32 0c0-29 19-53 46-61l0-13 32 0 0 13c27 8 46 32 46 61 0 29-15 50-43 59l-3 1 0 62c8-6 14-15 14-26z m-60 0c0 11 6 20 14 26l0-51c-10 5-14 13-14 25z m60-96c0-11-6-20-14-26l0 51c10-5 14-13 14-25z"/>
<glyph glyph-name="dollar-money" unicode="&#57427;" d="M286 225l31 0c0 28-19 52-45 59l0 13-32 0 0-13c-26-7-45-31-45-59 0-29 15-50 43-59l2-1 0-61c-8 5-14 15-14 25l-31 0c0-28 19-52 45-59l0-13 32 0 0 13c26 7 45 31 45 59 0 29-15 50-43 59l-2 0 0 62c8-6 14-15 14-25z m-60 0c0 10 6 19 14 25l0-51c-9 5-14 13-14 26z m60-96c0-10-6-20-14-25l0 51c9-5 14-13 14-26z m131 383l-16 0 0-158-290 0 0 158-16 0c-52 0-95-43-95-95l0-322c0-52 43-95 95-95l322 0c52 0 95 43 95 95l0 322c0 52-43 95-95 95z m-385-95c0 29 20 54 47 61l0-289c-18-3-34-12-47-23z m385-385l-322 0c-35 0-63 28-63 63 0 35 28 63 63 63l16 0 0 164 290 0 0-164 16 0c35 0 63-28 63-63 0-35-28-63-63-63z m63 134c-13 11-29 20-47 23l0 289c27-7 47-32 47-61z"/>
<glyph glyph-name="employees" unicode="&#57428;" d="M148 265c49 0 88 40 88 89 0 49-39 88-88 88-49 0-89-39-89-88 0-49 40-89 89-89z m0 146c31 0 57-26 57-57 0-32-26-57-57-57-32 0-57 25-57 57 0 31 25 57 57 57z m216-146c49 0 89 40 89 89 0 49-40 88-89 88-49 0-88-39-88-88 0-49 39-89 88-89z m0 146c32 0 57-26 57-57 0-32-25-57-57-57-31 0-57 25-57 57 0 31 26 57 57 57z m0-178c-41 0-80-17-108-47-27 29-66 47-108 47-82 0-148-66-148-148l0-15 512 0 0 15c0 82-66 148-148 148z m-331-132c7 52 48 92 99 99l0-72 32 0 0 72c51-7 92-47 99-99z m262 0c-3 21-9 41-20 59 19 22 45 36 73 40l0-72 32 0 0 72c51-7 92-47 99-99z"/>
<glyph glyph-name="exchange" unicode="&#57429;" d="M414 383l22-23 76 76-76 75-22-22 36-37-449 0 0-32 449 0z m-316-254l-22 23-76-76 76-75 22 22-36 37 449 0 0 32-449 0z m188 175l32 0c0 29-19 53-46 61l0 13-32 0 0-13c-27-8-46-32-46-61 0-29 15-50 43-59l3-1 0-62c-8 6-14 15-14 26l-32 0c0-29 19-53 46-61l0-13 32 0 0 13c27 8 46 32 46 61 0 29-15 50-43 59l-3 1 0 62c8-6 14-15 14-26z m-60 0c0 11 6 20 14 26l0-51c-10 5-14 13-14 25z m60-96c0-11-6-20-14-26l0 51c10-5 14-13 14-25z"/>
<glyph glyph-name="graph" unicode="&#57430;" d="M454 404c-32 0-58-26-58-58 0-11 3-20 7-29l-65-64c-8 4-18 7-28 7-10 0-20-3-28-7l-29 29c4 8 7 18 7 28 0 32-26 58-58 58-32 0-58-26-58-58 0-10 3-20 7-28l-65-65c-8 5-18 7-28 7-32 0-58-26-58-58 0-32 26-58 58-58 32 0 58 26 58 58 0 11-3 20-7 29l65 64c8-4 18-7 28-7 10 0 20 3 28 7l29-29c-4-8-7-18-7-28 0-32 26-58 58-58 32 0 58 26 58 58 0 10-3 20-7 28l65 65c8-5 18-7 28-7 32 0 58 26 58 58 0 32-26 58-58 58z m-396-264c-14 0-26 12-26 26 0 15 12 27 26 27 15 0 26-12 26-27 0-14-11-26-26-26z m144 144c-15 0-26 12-26 26 0 15 11 26 26 26 14 0 26-11 26-26 0-14-12-26-26-26z m108-109c-14 0-26 12-26 27 0 14 12 26 26 26 15 0 27-12 27-26 0-15-12-27-27-27z m144 144c-15 0-26 12-26 27 0 14 11 26 26 26 14 0 26-12 26-26 0-15-12-27-26-27z"/>
<glyph glyph-name="growth" unicode="&#57431;" d="M290 270l-68 68-222-221 0-97 512 0 0 472z m-121-29l37 37 0-226-37 0z m-32-189l-37 0 0 120 37 37z m101 226l36-37 0-189-36 0z m68-37l37 37 0-226-37 0z m69 68l37 37 0-294-37 0z m-343-205l37 37 0-89-37 0z m448-52l-37 0 0 326 37 37z"/>
<glyph glyph-name="growth-alt" unicode="&#57432;" d="M496 480c-58 0-108-18-153-57-39-34-70-78-100-121-59-85-115-165-227-165l-16 0 0-105 512 0 0 448z m-121-72c11 8 24 16 37 22l0-367-37 0z m-32-29l0-316-37 0 0 273c12 15 24 30 37 43z m-74-95c2 2 4 5 5 8l0-229-36 0 0 177c10 14 21 29 31 44z m-63-84l0-137-37 0 0 100c13 11 25 24 37 37z m-69-137l-37 0 0 58c13 5 25 11 37 19z m-105 43c12 1 25 3 37 5l0-48-37 0z m448-43l-37 0 0 379c12 3 24 5 37 6z"/>
<glyph glyph-name="hand" unicode="&#57433;" d="M512 256c0 19-13 36-31 41 1 4 2 8 2 13 0 23-19 42-43 42l-104 0c1 4 1 7 1 11 0 24-19 43-43 43l-69 0c-33 0-66-10-87-18l0 5-73 0 0 23-65 0 0-32 33 0 0-256-33 0 0-32 65 0 0 23 73 0 0 5c21-8 54-18 87-18l184 0c23 0 42 19 42 43 0 4 0 8-1 12 19 4 33 21 33 41 0 5-1 9-2 13 18 5 31 22 31 41z m-287 118l69 0c6 0 11-5 11-11 0-6-5-11-11-11l-83 0 0-16c0-43-31-80-73-87l0 105c16 6 53 20 87 20z m-119-223l-41 0 0 210 41 0z m334 41l-147 0 0-32 116 0c6 0 11-5 11-11 0-6-5-11-11-11l-184 0c-34 0-71 14-87 20l0 58c54 8 97 50 104 104l198 0c6 0 11-4 11-10 0-6-5-11-11-11l-147 0 0-32 176 0c6 0 11-5 11-11 0-6-5-11-11-11l-176 0 0-32 147 0c6 0 11-5 11-11 0-6-5-10-11-10z"/>
<glyph glyph-name="human-resources" unicode="&#57434;" d="M214 324c29 0 53 24 53 53 0 29-24 53-53 53-29 0-53-24-53-53 0-29 24-53 53-53z m0 74c12 0 21-9 21-21 0-12-9-21-21-21-12 0-21 9-21 21 0 12 9 21 21 21z m0-104c-50 0-90-41-90-91l0-16 180 0 0 16c0 50-40 91-90 91z m-56-75c7 25 29 43 56 43 27 0 49-18 56-43z m354-196l-136 136c32 37 52 86 52 139 0 118-96 214-214 214-118 0-214-96-214-214 0-118 96-214 214-214 53 0 102 20 139 52l136-136z m-480 275c0 100 82 182 182 182 100 0 182-82 182-182 0-100-82-182-182-182-100 0-182 82-182 182z"/>
<glyph glyph-name="id-card-alt" unicode="&#57435;" d="M67 512l0-512 378 0 0 512z m347-480l-316 0 0 448 316 0z m-158 307c29 0 53 24 53 53 0 29-24 53-53 53-29 0-53-24-53-53 0-29 24-53 53-53z m0 74c12 0 21-9 21-21 0-11-9-21-21-21-12 0-21 10-21 21 0 12 9 21 21 21z m90-193c0 50-41 90-90 90-49 0-90-40-90-90l0-16 180 0z m-146 16c7 24 30 42 56 42 26 0 49-18 56-42z m-65-137l121 0 0-32-121 0z m0 68l242 0 0-31-242 0z"/>
<glyph glyph-name="insurance" unicode="&#57436;" d="M256 275c29 0 52 24 52 52 0 29-23 53-52 53-29 0-52-24-52-53 0-28 23-52 52-52z m0 73c12 0 21-9 21-21 0-11-9-20-21-20-12 0-21 9-21 20 0 12 9 21 21 21z m0-103c-49 0-89-40-89-89l0-15 178 0 0 15c0 49-40 89-89 89z m-55-73c6 24 29 42 55 42 26 0 49-18 55-42z m289 251c-13-2-26-3-39-3-68 0-134 28-184 80l-11 12-11-12c-50-52-116-80-184-80-13 0-26 1-39 3l-19 3 1-19c3-76 17-145 43-204 21-47 50-89 84-124 60-59 118-77 120-78l5-1 5 1c2 1 60 19 120 78 34 35 63 77 84 124 26 59 40 128 43 204l1 19z m-130-320c-45-45-90-65-104-70-14 5-57 24-102 69-49 48-108 136-118 287 9-1 17-1 25-1 39 0 77 8 113 24 30 14 57 32 82 55 25-23 52-41 82-55 36-16 74-24 113-24 8 0 16 0 25 1-8-119-48-218-116-286z"/>
<glyph glyph-name="invest" unicode="&#57437;" d="M53 172c-22 54-22 114 0 168 19 46 52 83 94 107l0-74 36 0 0 121-121 0 0-36 36 0c-88-70-123-192-79-300 18-41 45-77 81-105 34-26 74-43 117-50l5 36c-76 12-139 61-169 133z m439-14c27 63 27 133 0 196-17 41-44 77-80 105-34 26-74 43-117 50l-6-36c77-12 140-61 170-133 22-54 22-114 0-168-19-46-52-83-94-107l0 74-36 0 0-121 120 0 0 36-35 0c34 27 61 63 78 104z m-202 153l36 0c0 32-22 59-52 67l0 16-36 0 0-16c-30-8-52-35-52-67 0-34 17-57 49-67l3-1 0-70c-10 6-16 16-16 28l-36 0c0-32 22-59 52-67l0-16 36 0 0 16c30 8 52 35 52 67 0 34-17 57-49 67l-3 1 0 70c10-6 16-16 16-28z m-68 0c0 12 6 22 16 28l0-58c-11 6-16 15-16 30z m68-110c0-12-6-22-16-28l0 58c11-6 16-15 16-30z"/>
<glyph glyph-name="key" unicode="&#57438;" d="M381 439c-15 0-30-6-41-17-22-22-22-59 0-82 11-11 26-17 41-17 16 0 30 6 41 17 23 23 23 60 0 82-11 11-25 17-41 17z m19-76c-5-5-12-8-19-8-7 0-13 3-18 8-11 10-11 27 0 37 5 5 11 8 18 8 7 0 14-3 19-8 10-10 10-27 0-37z m67 104c-30 29-69 45-110 45-42 0-81-16-110-45-44-45-57-111-34-169l-213-213 0-85 153 0 0 59 59 0 0 59 58 0 0 68 28 27c19-7 39-11 59-11 41 0 80 16 110 45 60 61 60 159 0 220z m-23-197c-23-24-54-37-87-37-19 0-38 5-55 13l-11 6-52-53 0-50-59 0 0-59-59 0 0-58-89 0 0 40 220 219-6 11c-23 47-14 105 24 142 23 23 54 36 87 36 33 0 64-13 87-36 48-48 48-126 0-174z"/>
<glyph glyph-name="light-bulb" unicode="&#57439;" d="M256 512c-104 0-188-84-188-188 0-65 33-125 87-159l0-64c0-56 46-101 101-101 55 0 101 45 101 101l0 64c54 34 87 94 87 159 0 104-84 188-188 188z m-69-354l138 0 0-42-138 0z m45 125l47 0-13-93-21 0z m24-251c-33 0-60 22-67 53l134 0c-7-31-34-53-67-53z m80 158l-38 0 17 124-119 0 17-124-37 0c-47 28-76 79-76 134 0 86 70 156 156 156 86 0 156-70 156-156 0-55-29-106-76-134z"/>
<glyph glyph-name="loss" unicode="&#57440;" d="M0 66l512 0 0-32-512 0z m480 147l0-51-190 190-68-69-195 195-22-22 217-217 68 68 168-167-51 0 0-32 105 0 0 105z"/>
<glyph glyph-name="medal" unicode="&#57441;" d="M501 424l-57 88-376 0-57-88 156-230c-18-21-29-47-29-76 0-65 53-118 118-118 65 0 118 53 118 118 0 29-11 55-29 76z m-38 1l-141-210c-14 9-29 15-46 18l-1 2 156 240z m-94 13l-226 0-27 42 280 0z m-21-32l-92-141-92 141z m-267 69l156-240-1-2c-17-3-32-9-46-18l-141 210z m175-443c-47 0-86 38-86 86 0 47 39 85 86 85 47 0 86-38 86-85 0-48-39-86-86-86z m-16 134l32 0 0-97-32 0z"/>
<glyph glyph-name="meeting" unicode="&#57442;" d="M163 175l20 0 0-175 146 0 0 175 20 0 0 209-186 0z m32 178l45 0 0-99 32 0 0 99 45 0 0-147-19 0 0-174-84 0 0 174-19 0z m61 52c29 0 53 24 53 54 0 29-24 53-53 53-29 0-53-24-53-53 0-30 24-54 53-54z m0 75c12 0 22-9 22-21 0-12-10-22-22-22-12 0-22 10-22 22 0 12 10 21 22 21z m131-96l0-384 105 0 0 175 20 0 0 209z m93-178l-19 0 0-174-43 0 0 321 62 0z m-40 199c29 0 53 24 53 54 0 29-24 53-53 53-29 0-53-24-53-53 0-30 24-54 53-54z m0 75c12 0 22-9 22-21 0-12-10-22-22-22-12 0-22 10-22 22 0 12 10 21 22 21z m-440-305l20 0 0-175 105 0 0 384-125 0z m32 178l62 0 0-321-43 0 0 174-19 0z m40 159c-29 0-53-24-53-53 0-30 24-54 53-54 29 0 53 24 53 54 0 29-24 53-53 53z m0-75c-12 0-22 10-22 22 0 12 10 21 22 21 12 0 22-9 22-21 0-12-10-22-22-22z"/>
<glyph glyph-name="money" unicode="&#57443;" d="M496 512l-480 0 0-305 59 0 0-57c0-68 35-138 36-141l5-9 280 0 5 9c1 3 36 73 36 141l0 57 59 0z m-34-90c-28 7-50 28-56 56l56 0z m-91-181l-196 0 0 42c0 28-23 50-50 50-14 0-27-6-36-15-12 7-25 12-39 14l0 56c47 7 83 44 91 90l230 0c8-46 44-83 91-90l0-56c-47-7-83-44-91-91z m-265 237c-6-28-28-49-56-56l0 56z m-56-237l0 56c9-2 18-6 26-11 0-1-1-2-1-3l0-42z m87-207c-9 20-28 69-28 116l0 133c0 9 7 16 16 16 9 0 16-7 16-16l0-154 17 0c56 0 102-42 110-95z m266 116c0-47-19-96-28-116l-73 0c-7 67-61 120-127 127l0 46 228 0z m3 91c6 28 28 50 56 56l0-56z m-150 195c-42 0-76-34-76-76 0-42 34-76 76-76 42 0 76 34 76 76 0 42-34 76-76 76z m0-119c-23 0-42 19-42 43 0 23 19 42 42 42 23 0 42-19 42-42 0-24-19-43-42-43z"/>
<glyph glyph-name="cheque" unicode="&#57444;" d="M165 329l31 0c0 28-19 52-45 59l0 13-32 0 0-13c-26-7-45-31-45-59 0-29 15-50 43-59l2-1 0-61c-8 5-13 15-13 25l-32 0c0-28 19-52 45-59l0-13 32 0 0 13c26 7 45 31 45 59 0 29-15 50-42 59l-3 0 0 62c8-6 14-15 14-25z m-59 0c0 10 5 19 13 25l0-51c-9 5-13 13-13 26z m59-96c0-10-6-20-14-25l0 51c10-5 14-13 14-26z m347 225l-512 0 0-354 183 0-14-50 121 36 14 14 208 0z m-480-322l0 290 448 0 0-69-47 47-229-228-12-40z m412 153l-41 41 30 29 41-41z m-171-171l-58-17 17 58 149 148 41-41z m63 18l144 144 0-144z"/>
<glyph glyph-name="money-bag" unicode="&#57445;" d="M286 232l31 0c0 29-19 53-45 60l0 13-32 0 0-13c-26-7-45-31-45-60 0-29 15-49 43-58l2-1 0-61c-8 5-14 15-14 25l-31 0c0-28 19-52 45-59l0-13 32 0 0 13c26 7 45 31 45 59 0 29-15 50-43 59l-2 0 0 61c8-5 14-14 14-25z m-60 0c0 11 6 20 14 25l0-50c-9 5-14 13-14 25z m60-95c0-10-6-20-14-25l0 51c9-5 14-13 14-26z m131 169c-20 28-46 51-76 65l35 130-27 0-4-3c-7-5-12-8-24-8-11 0-16 3-23 8-10 6-21 14-42 14-21 0-32-8-42-14-7-5-12-8-23-8-12 0-17 3-24 8l-4 3-27 0 35-130c-30-14-56-37-76-65-22-32-34-71-34-111l0-195 390 0 0 195c0 40-12 79-34 111z m-226 152c21 0 32 8 41 14 8 5 13 8 24 8 11 0 16-3 24-8 9-6 20-14 41-14 4 0 7 1 11 1l-22-81-108 0-22 81c4 0 7-1 11-1z m229-426l-328 0 0 163c0 67 40 126 101 151l126 0c61-25 101-84 101-151z"/>
<glyph glyph-name="office-chair" unicode="&#57446;" d="M378 324l0-74-106 0 0 42 77 0 13 220-212 0 13-220 77 0 0-42-106 0 0 74-58 0 0-32 26 0 0-139 138 0 0-79-96 0 0-74 32 0 0 42 64 0 0-42 32 0 0 42 64 0 0-42 32 0 0 74-96 0 0 79 138 0 0 139 26 0 0 32z m-194 156l144 0-9-156-126 0z m-50-295l0 34 244 0 0-34z"/>
<glyph glyph-name="open-book" unicode="&#57447;" d="M496 449c-15 0-36 7-58 15-28 10-61 21-96 21-30 0-65-10-86-24-21 14-56 24-86 24-35 0-68-11-96-21-22-8-43-15-58-15l-16 0 0-422 16 0c21 0 44 8 68 16 28 10 57 20 86 20 24 0 43-8 57-24l5-5 48 0 5 5c14 16 33 24 57 24 29 0 58-10 86-20 24-8 47-16 68-16l16 0 0 422z m-16-30l0-285c-12 3-27 8-42 13-28 10-61 22-96 22-23 0-50-7-70-16l0 281c9 6 26 14 46 17l0-174 58 31 58-31 0 155c16-6 32-11 46-13z m-130 34c18-1 35-5 52-10l0-113-26 14-26-14z m-266-19c28 10 57 20 86 20 28 0 58-11 70-20l0-281c-20 9-47 16-70 16-35 0-68-12-96-22-15-5-30-10-42-13l0 285c16 3 34 9 52 15z m86-340c-35 0-68-11-96-21-15-5-30-10-42-13l0 42c16 3 34 9 52 15 28 10 57 20 86 20 28 0 58-11 70-20l0-47c-15 13-37 24-70 24z m268-21c-28 10-61 21-96 21-32 0-55-11-70-24l0 47c12 9 42 20 70 20 29 0 58-10 86-20 18-6 36-12 52-15l0-42c-12 3-27 8-42 13z"/>
<glyph glyph-name="panel" unicode="&#57448;" d="M512 470l-240 0 0 42-32 0 0-42-240 0 0-32 42 0 0-301 198 0 0-105-108 0 0-32 248 0 0 32-108 0 0 105 198 0 0 301 42 0z m-74-301l-364 0 0 269 364 0z"/>
<glyph glyph-name="panel-1" unicode="&#57449;" d="M512 470l-240 0 0 42-32 0 0-42-240 0 0-32 42 0 0-301 198 0 0-105-108 0 0-32 248 0 0 32-108 0 0 105 198 0 0 301 42 0z m-74-301l-364 0 0 269 364 0z m-295 46l89 90 48-47 111 111-22 23-89-90-48 47-111-111z"/>
<glyph glyph-name="panel-2" unicode="&#57450;" d="M512 470l-240 0 0 42-32 0 0-42-240 0 0-32 42 0 0-301 198 0 0-105-108 0 0-32 248 0 0 32-108 0 0 105 198 0 0 301 42 0z m-74-301l-364 0 0 269 364 0z m-206 89l48 47 89-90 22 23-111 111-48-47-89 90-22-23z"/>
<glyph glyph-name="pen" unicode="&#57451;" d="M512 392l-49 49 49 48-23 23-48-49-49 49-333-334-33-114 8-8-34-34 22-22 34 34 8-8 114 33 260 259 22-22-99-99 23-22 121 121-45 44z m-45 0l-29-29-75 75 29 29z m-406-319l20 67 59-59-67-20z m109 22l-75 75 245 245 75-75z"/>
<glyph glyph-name="pencil" unicode="&#57452;" d="M392 512l-343-343-49-169 169 49 343 343z m75-120l-26-27-76 76 27 26z m-333-280l258 257 26-26-257-258z m-49 49l258 257 26-26-257-258z m-14-31l59-59-84-25z"/>
<glyph glyph-name="pie-chart" unicode="&#57453;" d="M235 438l-16 0c-121 0-219-98-219-219 0-121 98-219 219-219 121 0 219 98 219 219l0 16-203 0z m171-235c-8-96-89-171-187-171-103 0-187 84-187 187 0 98 75 179 171 187l0-203z m-113 309l-16 0 0-235 235 0 0 16c0 121-98 219-219 219z m16-203l0 171c90-8 163-81 171-171z"/>
<glyph glyph-name="pie-chart-1" unicode="&#57454;" d="M283 219c0-35-29-64-64-64-35 0-64 29-64 64 0 35 29 64 64 64l16 0 0 155-16 0c-121 0-219-98-219-219 0-121 98-219 219-219 121 0 219 98 219 219l0 16-155 0z m31-16l92 0c-8-96-89-171-187-171-103 0-187 84-187 187 0 98 75 179 171 187l0-92c-45-8-80-47-80-95 0-53 43-96 96-96 48 0 87 35 95 80z m-21 309l-16 0 0-155 16 0c35 0 64-29 64-64l0-16 155 0 0 16c0 121-98 219-219 219z m95-203c-7 40-39 72-79 79l0 92c90-8 163-81 171-171z"/>
<glyph glyph-name="pie-chart-2" unicode="&#57455;" d="M437 437c-48 48-113 75-181 75-68 0-133-27-181-75-48-48-75-113-75-181 0-68 27-133 75-181 48-48 113-75 181-75 68 0 133 27 181 75 48 48 75 113 75 181 0 68-27 133-75 181z m43-181c0-35-8-68-22-98l-112 64c4 11 6 22 6 34 0 47-35 87-80 95l0 129c116-8 208-106 208-224z m-288 0c0 35 29 64 64 64 35 0 64-29 64-64 0-35-29-64-64-64-35 0-64 29-64 64z m48 224l0-129c-45-8-80-48-80-95 0-12 2-23 6-34l-112-64c-14 30-22 63-22 98 0 118 92 216 208 224z m16-448c-77 0-145 39-186 98l112 65c18-21 44-35 74-35 30 0 56 14 74 35l112-65c-41-59-109-98-186-98z"/>
<glyph glyph-name="post-it" unicode="&#57456;" d="M63 512l0-512 386 0 0 512z m354-32l0-322-216 0 0 106-106 0 0 216z m-248-299l-52 51 52 0z m-22-23l-52 0 0 52z m-52-31l322 0 0-32-322 0z m0-95l0 31 322 0 0-31z"/>
<glyph glyph-name="profit" unicode="&#57457;" d="M0 63l512 0 0-31-512 0z m407 417l0-31 51 0-168-168-68 69-217-217 22-23 195 195 68-69 190 190 0-51 32 0 0 105z"/>
<glyph glyph-name="profit-1" unicode="&#57458;" d="M390 512c-51 0-95-34-109-81-8 1-16 1-25 1-9 0-17 0-25-1-14 47-58 81-109 81-62 0-112-50-112-112l0-288c0-62 50-112 112-112 51 0 95 34 109 81 8-1 16-1 25-1 9 0 17 0 25 1 14-47 58-81 109-81 62 0 112 50 112 112l0 288c0 62-50 112-112 112z m0-32c44 0 80-36 80-80 0-34-21-64-51-76-20 47-59 83-107 99 11 34 42 57 78 57z m-268 0c36 0 67-23 78-57-48-16-87-52-107-99-30 12-51 42-51 76 0 44 36 80 80 80z m-80-159c11-12 26-21 42-27-3-12-4-25-4-38 0-7 0-14 1-21-24 14-39 40-39 69z m0-95c13-14 30-24 48-30 9-26 25-49 44-68-4 0-8-1-12-1-44 0-80 37-80 81z m80-194c-44 0-80 36-80 80l0 18c20-21 49-34 80-34 15 0 30 3 44 8 10-6 22-11 34-15-11-34-42-57-78-57z m-11 224c0 80 65 145 145 145 80 0 145-65 145-145 0-80-65-145-145-145-80 0-145 65-145 145z m359-144c0-44-36-80-80-80-36 0-67 23-78 57 12 4 24 9 34 15 14-5 29-8 44-8 31 0 60 13 80 34z m-80 15c-4 0-8 1-12 1 19 19 35 42 44 68 18 6 35 16 48 30l0-18c0-44-36-81-80-81z m80 177c0-29-15-55-39-69 1 7 1 14 1 21 0 13-1 26-4 38 16 6 31 15 42 27z m-184 0l31 0c0 28-19 52-45 59l0 13-32 0 0-13c-26-7-45-31-45-59 0-29 15-50 43-59l2-1 0-61c-8 6-14 15-14 25l-31 0c0-28 19-52 45-59l0-13 32 0 0 13c26 7 45 31 45 59 0 29-15 50-43 59l-2 1 0 61c8-6 14-15 14-25z m-60 0c0 10 6 19 14 25l0-51c-9 5-14 13-14 26z m60-96c0-10-6-19-14-25l0 51c9-5 14-13 14-26z"/>
</font>
</defs>
</svg>
